Вы используете незарегистрированную версию компонента "Вкладки"!

Поиск

(free jazz) [cd] Jemeel Moondoc Vtet - Revolt of the Negro Lawn Jockeys 2000, FLAC (tracks+.cue), lossless

(free jazz) [cd] Jemeel Moondoc Vtet - Revolt of the Negro Lawn Jockeys 2000, FLAC (tracks+.cue), lossless
Треклист:
(free jazz) [cd] Jemeel Moondoc Vtet - Revolt of the Negro Lawn Jockeys 2000, FLAC (tracks+.cue), lossless


Jemeel Moondoc Vtet - Revolt of the Negro Lawn Jockeys 2000

Жанр:free jazz
Год выпуска: 2000
Издатель (лейбл):Eremite / MTE028
Формат: FLAC (tracks+.cue)
Битрейт аудио: lossless
Продолжительность 47`30
Источник: what.cd, 6060842

tracks

1 Moon Mode 15:46
2 You Let Me Into Your Life 13:17
3 Revolt Of The Negro Lawn Jockeys 15:22
4 Encore 3:00


 
.log
X Lossless Decoder version 20140504 (147.0)
XLD extraction logfile from 2014-08-09 01:04:12 +0100
Jemeel Moondoc Vtet / Revolt of the Negro Lawn Jockeys
Used drive : HL-DT-ST DVDRW GX30N (revision RP09)
Media type : Pressed CD
Ripper mode : XLD Secure Ripper
Disable audio cache : OK for the drive with a cache less than 1375KiB
Make use of C2 pointers : NO
Read offset correction : 6
Max retry count : 100
Gap status : Analyzed, Appended (except HTOA)
TOC of the extracted CD
Track | Start | Length | Start sector | End sector
---------------------------------------------------------
1 | 00:00:00 | 15:48:35 | 0 | 71134
2 | 15:48:35 | 13:19:07 | 71135 | 131066
3 | 29:07:42 | 15:21:61 | 131067 | 200202
4 | 44:29:28 | 03:00:42 | 200203 | 213744
AccurateRip Summary (DiscID: 000966d6-0024b291-350b2104)
Track 01 : OK (v2, confidence 3/3)
Track 02 : OK (v2, confidence 3/3)
Track 03 : OK (v2, confidence 3/3)
Track 04 : OK (v2, confidence 3/3)
->All tracks accurately ripped.
All Tracks
Album gain : -3.85 dB
Peak : 0.967926
Statistics
Read error : 0
Jitter error (maybe fixed) : 0
Retry sector count : 0
Damaged sector count : 0
Track 01
Filename : /Users/Shared/Grabbed/Jemeel Moondoc Vtet - 2000 - Revolt of the Negro Lawn Jockeys [FLAC]/01 - Moon Mode.flac
Pre-gap length : 00:02:00
Track gain : -4.45 dB
Peak : 0.958801
CRC32 hash (test run) : 1E760791
CRC32 hash : 1E760791
CRC32 hash (skip zero) : F7F18993
AccurateRip v1 signature : F360710F
AccurateRip v2 signature : 463FFD9B
->Accurately ripped (v2, confidence 3/3)
Statistics
Read error : 0
Jitter error (maybe fixed) : 0
Retry sector count : 0
Damaged sector count : 0
Track 02
Filename : /Users/Shared/Grabbed/Jemeel Moondoc Vtet - 2000 - Revolt of the Negro Lawn Jockeys [FLAC]/02 - You Let Me Into Your Life.flac
Pre-gap length : 00:01:55
Track gain : -3.39 dB
Peak : 0.944763
CRC32 hash (test run) : 0ABA0030
CRC32 hash : 0ABA0030
CRC32 hash (skip zero) : AC9B59A2
AccurateRip v1 signature : B61B4182
AccurateRip v2 signature : 133FBFAF
->Accurately ripped (v2, confidence 3/3)
Statistics
Read error : 0
Jitter error (maybe fixed) : 0
Retry sector count : 0
Damaged sector count : 0
Track 03
Filename : /Users/Shared/Grabbed/Jemeel Moondoc Vtet - 2000 - Revolt of the Negro Lawn Jockeys [FLAC]/03 - Revolt of the Negro Lawn Jockeys.flac
Pre-gap length : 00:01:55
Track gain : -3.26 dB
Peak : 0.967926
CRC32 hash (test run) : 9C50F749
CRC32 hash : 9C50F749
CRC32 hash (skip zero) : 793A12C4
AccurateRip v1 signature : 1780C5DD
AccurateRip v2 signature : 8A9F5C2A
->Accurately ripped (v2, confidence 3/3)
Statistics
Read error : 0
Jitter error (maybe fixed) : 0
Retry sector count : 0
Damaged sector count : 0
Track 04
Filename : /Users/Shared/Grabbed/Jemeel Moondoc Vtet - 2000 - Revolt of the Negro Lawn Jockeys [FLAC]/04 - Encore.flac
Track gain : -4.43 dB
Peak : 0.961273
CRC32 hash (test run) : DB5CDDB8
CRC32 hash : DB5CDDB8
CRC32 hash (skip zero) : 4DC5B524
AccurateRip v1 signature : 18186B98
AccurateRip v2 signature : A292A58B
->Accurately ripped (v2, confidence 3/3)
Statistics
Read error : 0
Jitter error (maybe fixed) : 0
Retry sector count : 0
Damaged sector count : 0
No errors occurred
End of status report
-----BEGIN XLD SIGNATURE-----
a5kL7JQ0SU7vRL1xFcJurMZ3V5YbmupyWCBCQnBQbeIZokf7n3RvOG3wXdN0PtKP9MRfJ9DFLKFkphRBXqXNfxPLgXbpwO6MTGpchSi
-----END XLD SIGNATURE-----
 
.cue
TITLE "Revolt of the Negro Lawn Jockeys"
PERFORMER "Jemeel Moondoc Vtet"
REM GENRE "Free Jazz"
REM DATE "2000"
REM DISCID 350B2104
REM REPLAYGAIN_ALBUM_GAIN -3.85 dB
REM REPLAYGAIN_ALBUM_PEAK 0.967926
FILE "01 - Moon Mode.flac" WAVE
TRACK 01 AUDIO
TITLE "Moon Mode"
PERFORMER "Jemeel Moondoc Vtet"
ISRC USTME0078691
REM REPLAYGAIN_TRACK_GAIN -4.45 dB
REM REPLAYGAIN_TRACK_PEAK 0.958801
INDEX 01 00:00:00
TRACK 02 AUDIO
TITLE "You Let Me Into Your Life"
PERFORMER "Jemeel Moondoc Vtet"
ISRC USTME0078692
REM REPLAYGAIN_TRACK_GAIN -3.39 dB
REM REPLAYGAIN_TRACK_PEAK 0.944763
INDEX 00 15:46:55
FILE "02 - You Let Me Into Your Life.flac" WAVE
INDEX 01 00:00:00
TRACK 03 AUDIO
TITLE "Revolt of the Negro Lawn Jockeys"
PERFORMER "Jemeel Moondoc Vtet"
ISRC USTME0078693
REM REPLAYGAIN_TRACK_GAIN -3.26 dB
REM REPLAYGAIN_TRACK_PEAK 0.967926
INDEX 00 13:17:27
FILE "03 - Revolt of the Negro Lawn Jockeys.flac" WAVE
INDEX 01 00:00:00
FILE "04 - Encore.flac" WAVE
TRACK 04 AUDIO
TITLE "Encore"
PERFORMER "Jemeel Moondoc Vtet"
ISRC USTME0078694
REM REPLAYGAIN_TRACK_GAIN -4.43 dB
REM REPLAYGAIN_TRACK_PEAK 0.961273
INDEX 01 00:00:00
 
.accurip
[CUETools log; Date: 17/08/14 07:13:24; Version: 2.1.4]
[AccurateRip ID: 000966d6-0024b291-350b2104] found.
Track [ CRC | V2 ] Status
01 [f360710f|463ffd9b] (0+3/3) Accurately ripped
02 [b61b4182|133fbfaf] (0+3/3) Accurately ripped
03 [1780c5dd|8a9f5c2a] (0+3/3) Accurately ripped
04 [18186b98|a292a58b] (0+3/3) Accurately ripped
Track Peak [ CRC32 ] [W/O NULL]
-- 96.7 [126DC1AA] [277CA1A7]
01 95.8 [1E760791] [F7F18993]
02 94.4 [0ABA0030] [AC9B59A2]
03 96.7 [9C50F749] [793A12C4]
04 96.1 [DB5CDDB8] [4DC5B524]

http://www.discogs.com/Jemeel-Moondoc-Vtet-Revolt-Of-The-Negro-Lawn-Jockeys/release/2482752
другие релизы
По всем вопросам пишите личное сообщение пользователю M0p94ok.
04:00
208
Нет комментариев. Ваш будет первым!