Вы используете незарегистрированную версию компонента "Вкладки"!

Поиск

(Avant-Garde Jazz, Free Improvisation) [CD] Ensemble Uncontrolled (Christoph Gallio, Eduard Akulin, Mart Soo, Kalle Laar, Takashi Kazamaki) - Tales From The Forest - 1996, FLAC (tracks+.cue), lossless

Треклист:
Ensemble Uncontrolled / Tales From The Forest
Жанр: Avant-Garde Jazz, Free Improvisation
Носитель: CD
Страна-производитель диска: UK
Год издания: 1996
Издатель (лейбл): Leo Records
Номер по каталогу: LEO LAB CD 024
Страна: Various
Аудиокодек: FLAC (*.flac)
Тип рипа: tracks+.cue
Битрейт аудио: lossless
Продолжительность: 58:36
Источник (релизер): свой фирменный диск
Наличие сканов в содержимом раздачи:
Треклист:
1. First Calls In The Darkness 3:52
2. Reflecting Drips 4:35
3. Smell The Shadows 3:27
4. Cairns, Moss And Living Boulders 8:11
5. Slow Life At The Pond 2:49
6. Aquamarin Visit 6:37
7. Learn To Use The Tentacles 4:35
8. Meeting At The Clearing 4:44
9. The Tree And The Ancestors 2:20
10. Searching For The Talking Plant 7:48
11. Guided By Two Hundred Insects 5:04
12. Survival Talks 4:01
 
Лог создания рипа
Exact Audio Copy V1.0 beta 3 from 29. August 2011
EAC extraction logfile from 25. June 2014, 23:48
Ensemble Uncontrolled / Tales From The Forest
Used drive : PIONEER DVD-RW DVR-115D Adapter: 0 ID: 0
Read mode : Secure
Utilize accurate stream : Yes
Defeat audio cache : Yes
Make use of C2 pointers : No
Read offset correction : 48
Overread into Lead-In and Lead-Out : No
Fill up missing offset samples with silence : Yes
Delete leading and trailing silent blocks : No
Null samples used in CRC calculations : Yes
Used interface : Installed external ASPI interface
Gap handling : Appended to previous track
Used output format : User Defined Encoder
Selected bitrate : 896 kBit/s
Quality : High
Add ID3 tag : No
Command line compressor : C:\Program Files\Exact Audio Copy\FLAC\FLAC.EXE
Additional command line options : -6 -V -T "ARTIST=%artist%" -T "TITLE=%title%" -T "ALBUM=%albumtitle%" -T "DATE=%year%" -T "TRACKNUMBER=%tracknr%" -T "GENRE=%genre%" -T "COMMENT=%comment%" -T "BAND=%albuminterpret%" -T "COMPOSER=%composer%" %haslyrics%--tag-from-file=LYRICS="%lyricsfile%"%haslyrics% -T "DISCNUMBER=%cdnumber%" -T "TOTALDISCS=%totalcds%" -T "TOTALTRACKS=%numtracks%" %hascover%--picture="%coverfile%"%hascover% %source% -o %dest%
TOC of the extracted CD
Track | Start | Length | Start sector | End sector
---------------------------------------------------------
1 | 0:00.00 | 3:52.57 | 0 | 17456
2 | 3:52.57 | 4:42.70 | 17457 | 38676
3 | 8:35.52 | 3:31.65 | 38677 | 54566
4 | 12:07.42 | 8:14.05 | 54567 | 91621
5 | 20:21.47 | 2:52.38 | 91622 | 104559
6 | 23:14.10 | 6:37.27 | 104560 | 134361
7 | 29:51.37 | 4:37.40 | 134362 | 155176
8 | 34:29.02 | 4:49.45 | 155177 | 176896
9 | 39:18.47 | 2:21.58 | 176897 | 187529
10 | 41:40.30 | 7:49.32 | 187530 | 222736
11 | 49:29.62 | 5:07.15 | 222737 | 245776
12 | 54:37.02 | 3:59.08 | 245777 | 263709
Track 1
Filename D:\zzz\01 - First Calls In The Darkness.wav
Pre-gap length 0:00:02.00
Peak level 76.8 %
Extraction speed 4.1 X
Track quality 99.9 %
Test CRC 424AD939
Copy CRC 424AD939
Track not present in AccurateRip database
Copy OK
Track 2
Filename D:\zzz\02 - Reflecting Drips.wav
Pre-gap length 0:00:06.32
Peak level 90.2 %
Extraction speed 5.3 X
Track quality 100.0 %
Test CRC 7A550411
Copy CRC 7A550411
Track not present in AccurateRip database
Copy OK
Track 3
Filename D:\zzz\03 - Smell The Shadows.wav
Pre-gap length 0:00:15.20
Peak level 87.2 %
Extraction speed 5.5 X
Track quality 100.0 %
Test CRC 2309335F
Copy CRC 2309335F
Track not present in AccurateRip database
Copy OK
Track 4
Filename D:\zzz\04 - Cairns, Moss and Living Boulders.wav
Pre-gap length 0:00:12.55
Peak level 100.0 %
Extraction speed 6.5 X
Track quality 100.0 %
Test CRC 1A4ED501
Copy CRC 1A4ED501
Track not present in AccurateRip database
Copy OK
Track 5
Filename D:\zzz\05 - Slow Life At The Pond.wav
Pre-gap length 0:00:11.32
Peak level 48.5 %
Extraction speed 6.2 X
Track quality 100.0 %
Test CRC DEE5318D
Copy CRC DEE5318D
Track not present in AccurateRip database
Copy OK
Track 6
Filename D:\zzz\06 - Aquamarin Visit.wav
Pre-gap length 0:00:10.71
Peak level 87.7 %
Extraction speed 7.2 X
Track quality 100.0 %
Test CRC D021D1D4
Copy CRC D021D1D4
Track not present in AccurateRip database
Copy OK
Track 7
Filename D:\zzz\07 - Learn To Use The Tentacles.wav
Pre-gap length 0:00:11.06
Peak level 96.6 %
Extraction speed 6.6 X
Track quality 99.9 %
Test CRC 3A113609
Copy CRC 3A113609
Track not present in AccurateRip database
Copy OK
Track 8
Filename D:\zzz\08 - Meeting At The Clearing.wav
Pre-gap length 0:00:10.25
Peak level 100.0 %
Extraction speed 7.7 X
Track quality 100.0 %
Test CRC D62F0304
Copy CRC D62F0304
Track not present in AccurateRip database
Copy OK
Track 9
Filename D:\zzz\09 - The Tree And The Ancestors.wav
Pre-gap length 0:00:12.45
Peak level 79.8 %
Extraction speed 5.8 X
Track quality 99.9 %
Test CRC A2279B95
Copy CRC A2279B95
Track not present in AccurateRip database
Copy OK
Track 10
Filename D:\zzz\10 - Searching For The Talking Plant.wav
Pre-gap length 0:00:09.35
Peak level 100.0 %
Extraction speed 8.0 X
Track quality 99.9 %
Test CRC 5BB8109A
Copy CRC 5BB8109A
Track not present in AccurateRip database
Copy OK
Track 11
Filename D:\zzz\11 - Guided By Two Hundred Insects.wav
Pre-gap length 0:00:13.22
Peak level 100.0 %
Extraction speed 8.6 X
Track quality 100.0 %
Test CRC D5D4CDD8
Copy CRC D5D4CDD8
Track not present in AccurateRip database
Copy OK
Track 12
Filename D:\zzz\12 - Survival Talks.wav
Pre-gap length 0:00:12.12
Peak level 73.9 %
Extraction speed 8.5 X
Track quality 100.0 %
Test CRC 1855C12D
Copy CRC 1855C12D
Track not present in AccurateRip database
Copy OK
None of the tracks are present in the AccurateRip database
No errors occurred
End of status report
==== Log checksum 847E007FE2382A479906D12231D2E81F505E7065DF7062B2568972E4E70519DB ====
 
Содержание индексной карты (.CUE)
REM GENRE "Free Improvisation"
REM DATE 1996
REM DISCID 9F0DBC0C
REM COMMENT "ExactAudioCopy v1.0b3"
PERFORMER "Ensemble Uncontrolled"
TITLE "Tales From The Forest"
FILE "01 - First Calls In The Darkness.wav" WAVE
TRACK 01 AUDIO
TITLE "First Calls In The Darkness"
PERFORMER "Ensemble Uncontrolled"
INDEX 01 00:00:00
TRACK 02 AUDIO
TITLE "Reflecting Drips"
PERFORMER "Ensemble Uncontrolled"
INDEX 00 03:46:25
FILE "02 - Reflecting Drips.wav" WAVE
INDEX 01 00:00:00
TRACK 03 AUDIO
TITLE "Smell The Shadows"
PERFORMER "Ensemble Uncontrolled"
INDEX 00 04:27:50
FILE "03 - Smell The Shadows.wav" WAVE
INDEX 01 00:00:00
TRACK 04 AUDIO
TITLE "Cairns, Moss and Living Boulders"
PERFORMER "Ensemble Uncontrolled"
INDEX 00 03:19:10
FILE "04 - Cairns, Moss and Living Boulders.wav" WAVE
INDEX 01 00:00:00
TRACK 05 AUDIO
TITLE "Slow Life At The Pond"
PERFORMER "Ensemble Uncontrolled"
INDEX 00 08:02:48
FILE "05 - Slow Life At The Pond.wav" WAVE
INDEX 01 00:00:00
TRACK 06 AUDIO
TITLE "Aquamarin Visit"
PERFORMER "Ensemble Uncontrolled"
INDEX 00 02:41:42
FILE "06 - Aquamarin Visit.wav" WAVE
INDEX 01 00:00:00
TRACK 07 AUDIO
TITLE "Learn To Use The Tentacles"
PERFORMER "Ensemble Uncontrolled"
INDEX 00 06:26:21
FILE "07 - Learn To Use The Tentacles.wav" WAVE
INDEX 01 00:00:00
TRACK 08 AUDIO
TITLE "Meeting At The Clearing"
PERFORMER "Ensemble Uncontrolled"
INDEX 00 04:27:15
FILE "08 - Meeting At The Clearing.wav" WAVE
INDEX 01 00:00:00
TRACK 09 AUDIO
TITLE "The Tree And The Ancestors"
PERFORMER "Ensemble Uncontrolled"
INDEX 00 04:37:00
FILE "09 - The Tree And The Ancestors.wav" WAVE
INDEX 01 00:00:00
TRACK 10 AUDIO
TITLE "Searching For The Talking Plant"
PERFORMER "Ensemble Uncontrolled"
INDEX 00 02:12:23
FILE "10 - Searching For The Talking Plant.wav" WAVE
INDEX 01 00:00:00
TRACK 11 AUDIO
TITLE "Guided By Two Hundred Insects"
PERFORMER "Ensemble Uncontrolled"
INDEX 00 07:36:10
FILE "11 - Guided By Two Hundred Insects.wav" WAVE
INDEX 01 00:00:00
TRACK 12 AUDIO
TITLE "Survival Talks"
PERFORMER "Ensemble Uncontrolled"
INDEX 00 04:55:03
FILE "12 - Survival Talks.wav" WAVE
INDEX 01 00:00:00
 
Лог проверки качества
d:\>d:\aucdtect -d/-m0 d:\zzz\*.wav
auCDtect: CD records authenticity detector, version 0.8.2
Copyright (c) 2004 Oleg Berngardt. All rights reserved.
Copyright (c) 2004 Alexander Djourik. All rights reserved.
------------------------------------------------------------
Processing file: [01. First Calls In The Darkness.wav]
------------------------------------------------------------
This track looks like CDDA with probability 100%
------------------------------------------------------------
Processing file: [02. Reflecting Drips.wav]
------------------------------------------------------------
This track looks like CDDA with probability 100%
------------------------------------------------------------
Processing file: [03. Smell The Shadows.wav]
------------------------------------------------------------
This track looks like CDDA with probability 100%
------------------------------------------------------------
Processing file: [04. Cairns, Moss and Living Boulders.wav]
------------------------------------------------------------
This track looks like CDDA with probability 100%
------------------------------------------------------------
Processing file: [05. Slow Life At The Pond.wav]
------------------------------------------------------------
This track looks like CDDA with probability 100%
------------------------------------------------------------
Processing file: [06. Aquamarin Visit.wav]
------------------------------------------------------------
This track looks like CDDA with probability 100%
------------------------------------------------------------
Processing file: [07. Learn To Use The Tentacles.wav]
------------------------------------------------------------
This track looks like CDDA with probability 100%
------------------------------------------------------------
Processing file: [08. Meeting At The Clearing.wav]
------------------------------------------------------------
This track looks like CDDA with probability 100%
------------------------------------------------------------
Processing file: [09. The Tree And The Ancestors.wav]
------------------------------------------------------------
This track looks like CDDA with probability 99%
------------------------------------------------------------
Processing file: [10. Searching For The Talking Plant.wav]
------------------------------------------------------------
This track looks like CDDA with probability 100%
------------------------------------------------------------
Processing file: [11. Guided By Two Hundred Insects.wav]
------------------------------------------------------------
This track looks like CDDA with probability 99%
------------------------------------------------------------
Processing file: [12. Survival Talks.wav]
------------------------------------------------------------
This track looks like CDDA with probability 100%
------------------------------------------------------------
Final Conclusion:
------------------------------------------------------------
These tracks looks like CDDA with probability 100%
Доп. информация:
 
Album Info & AMG Review
(Akulin/Gallio/Laar) - 1,5,7,9
(Kazamaki/Laar/Soo) - 2,12
(Akulin/Kazamaki/Soo) - 3,6
(Gallio/Kazamaki/Laar) - 4
(Akulin/Gallio/Kazamaki/Laar) - 8
(Akulin/Gallio/Kazamaki/Laar/Soo) - 10,11
Recorded live at Strange Fruit, Oiso, Japan, 23.11.1995 by Katsumi Kawasaki (Tokyo)
Front cover by Theresa Marcis (Chico)
Produced by Leo Feigin
This recording was made during the project "Free World Big Band" supported by the Japan Art and Culture Foundation, Lufthansa, and Goethe Institute, Tokyo.
The Ensemble Uncontrolled were a big band who performed a small series of gigs together and made this recording as a part of the Free World Big Band Project sponsored by the Japanese government, the Goethe Institute in Tokyo, and Lufthansa Airlines. Given this group's name, and the reputations of its players -- guitarists Martin Soo (Estonia) and Kalle Laar (Munich), percussionist Takashi Kazamaki, saxophonist Christoph Gallio from Zurich, and trombonist Eduard Akulin (also from Estonia) -- one would think of an extreme free improv workout that taxes the stamina of the listener. This is totally untrue. Tales From the Forest is a highly structured form of improvisational music -- no it's not a contradiction -- and an organized form of musical communication for all five performers. Everything here relies on the structure of mode and interval, and the interaction, of different musicians with each other at different times. How it works is determined by how well one player listens to another. In 12 different settings, duration is determined by the length of the first phrase and its ensuing interval between one soloist and another, or between ensemble and soloist. With no time frames other than those self-imposed by individual players who state a first idea, things could go on forever, but don't. The Ensemble seem to know inherently that more force and expression can be generated in shorter lengths, allowing them more settings for improvisation -- this disc was cut live in the studio and there are no overdubs or tape edits. The 12 selections here are actually one continuous work with 12 sections (making individual titles irrelevant); times are allocated on the CD booklet to give the listener an idea of where new modalities were found and new intervals created by contrasting harmonic and timbral considerations. The result is a compelling and intricate web of interactions by five excellent improvisers whose sole purpose is to play in trio settings with one another until all possibilities -- or tape -- run out. Hence trombones and guitars exchange sonances while saxophones and electronics and percussion move through intervallic flashes of angular acrobatics at varying tempos. The only exceptions to this rule are two full quintet pieces near the end of the album that are striking for their restraint and rich, textural microtonal improvising, and a quartet minus Soo in the middle of it. This is a close listening experience for those interested in avant garde music, free jazz, and improvisation; some of the changes in intervallic exploration are very, very subtle, but extremely well-crafted and intoned. Ultimately, Tales From the Forest is a fascinating, difficult, and subtle treasure of the genre; it's a shame this band didn't get a chance to make more recordings together because as fine as the communication is here, one can only imagine what it might be if the individuals in Ensemble Uncontrolled were given more time to become familiar with one another's idiosyncrasies and playing styles. Alas.
 
Состав
Christoph Gallio: alto, soprano sax (Zurich)
Eduard Akulin: trombone (Tallin)
Mart Soo: guitar, effects (Tallin)
Kalle Laar: guitar, electronics (Munich)
Takashi Kazamaki: percussion (Tokyo)
По всем вопросам пишите личное сообщение пользователю M0p94ok.
04:00
185
Нет комментариев. Ваш будет первым!