Поиск

(Free Jazz, British Jazz, Big Band) [CDR] Chris McGregor's Brotherhood Of Breath (feat. Annie Whitehead, Thomas Dyani, Harry Beckett, Julian Arguelles) - The Memorial Concert - 1994, FLAC (tracks+.cue), lossless

Треклист:
Chris McGregor's Brotherhood Of Breath / The Memorial Concert
Жанр: Free Jazz, British Jazz, Big Band
Носитель: CDR
Страна-производитель диска: Germany
Год издания: 1994
Издатель (лейбл): ITM Records
Номер по каталогу: ITMP 970086
Страна: UK
Аудиокодек: FLAC (*.flac)
Тип рипа: tracks+.cue
Битрейт аудио: lossless
Продолжительность: 72:42
Источник (релизер): свой фирменный диск
Наличие сканов в содержимом раздачи:
Треклист:
1. Dakar 13:42
2. Sangena 9:28
3. Andromeda 5:41
4. Big G 10:16
5. Lafente 9:15
6. Bakwetha 10:51
7. Country Cooking 5:51
8. Mra 7:22
 
Лог создания рипа
Exact Audio Copy V1.0 beta 3 from 29. August 2011
EAC extraction logfile from 25. June 2014, 21:19
Chris McGregor's Brotherhood Of Breath / The Memorial Concert
Used drive : TSSTcorpCDDVDW SH-222AB Adapter: 1 ID: 0
Read mode : Secure
Utilize accurate stream : Yes
Defeat audio cache : Yes
Make use of C2 pointers : No
Read offset correction : 6
Overread into Lead-In and Lead-Out : No
Fill up missing offset samples with silence : Yes
Delete leading and trailing silent blocks : No
Null samples used in CRC calculations : Yes
Used interface : Installed external ASPI interface
Gap handling : Appended to previous track
Used output format : User Defined Encoder
Selected bitrate : 896 kBit/s
Quality : High
Add ID3 tag : No
Command line compressor : C:\Program Files\Exact Audio Copy\FLAC\FLAC.EXE
Additional command line options : -6 -V -T "ARTIST=%artist%" -T "TITLE=%title%" -T "ALBUM=%albumtitle%" -T "DATE=%year%" -T "TRACKNUMBER=%tracknr%" -T "GENRE=%genre%" -T "COMMENT=%comment%" -T "BAND=%albuminterpret%" -T "COMPOSER=%composer%" %haslyrics%--tag-from-file=LYRICS="%lyricsfile%"%haslyrics% -T "DISCNUMBER=%cdnumber%" -T "TOTALDISCS=%totalcds%" -T "TOTALTRACKS=%numtracks%" %hascover%--picture="%coverfile%"%hascover% %source% -o %dest%
TOC of the extracted CD
Track | Start | Length | Start sector | End sector
---------------------------------------------------------
1 | 0:00.00 | 13:40.05 | 0 | 61504
2 | 13:40.05 | 9:36.12 | 61505 | 104716
3 | 23:16.17 | 5:54.48 | 104717 | 131314
4 | 29:10.65 | 10:15.32 | 131315 | 177471
5 | 39:26.22 | 9:18.30 | 177472 | 219351
6 | 48:44.52 | 11:00.33 | 219352 | 268884
7 | 59:45.10 | 5:34.52 | 268885 | 293986
8 | 65:19.62 | 7:22.30 | 293987 | 327166
Track 1
Filename D:\zzz\01 - Dakar.wav
Pre-gap length 0:00:02.00
Peak level 93.1 %
Extraction speed 3.0 X
Track quality 100.0 %
Test CRC 26AACDDB
Copy CRC 26AACDDB
Cannot be verified as accurate (confidence 1) [94F43573], AccurateRip returned [01706765] (AR v2)
Copy OK
Track 2
Filename D:\zzz\02 - Sangena.wav
Peak level 96.7 %
Extraction speed 3.0 X
Track quality 100.0 %
Test CRC 0EEF1354
Copy CRC 0EEF1354
Cannot be verified as accurate (confidence 1) [FA803601], AccurateRip returned [CD59FB1E] (AR v2)
Copy OK
Track 3
Filename D:\zzz\03 - Andromeda.wav
Pre-gap length 0:00:07.60
Peak level 97.6 %
Extraction speed 2.9 X
Track quality 100.0 %
Test CRC E1DC1067
Copy CRC E1DC1067
Cannot be verified as accurate (confidence 1) [5EDC4004], AccurateRip returned [6CD5A02D] (AR v2)
Copy OK
Track 4
Filename D:\zzz\04 - Big G.wav
Pre-gap length 0:00:12.50
Peak level 96.5 %
Extraction speed 3.0 X
Track quality 100.0 %
Test CRC 74A0CBEC
Copy CRC 74A0CBEC
Cannot be verified as accurate (confidence 1) [A17E61A3], AccurateRip returned [27AB5B0B] (AR v2)
Copy OK
Track 5
Filename D:\zzz\05 - Lafente.wav
Pre-gap length 0:00:11.15
Peak level 97.7 %
Extraction speed 2.8 X
Track quality 99.9 %
Test CRC 1EBD16B5
Copy CRC 1EBD16B5
Cannot be verified as accurate (confidence 1) [9073D4EA], AccurateRip returned [69F690A6] (AR v2)
Copy OK
Track 6
Filename D:\zzz\06 - Bakwetha.wav
Pre-gap length 0:00:14.35
Peak level 93.9 %
Extraction speed 3.0 X
Track quality 100.0 %
Test CRC 33D61BB7
Copy CRC 33D61BB7
Cannot be verified as accurate (confidence 1) [26FA3466], AccurateRip returned [93678A5A] (AR v2)
Copy OK
Track 7
Filename D:\zzz\07 - Country Cooking.wav
Pre-gap length 0:00:23.45
Peak level 97.0 %
Extraction speed 2.8 X
Track quality 100.0 %
Test CRC A84389F6
Copy CRC A84389F6
Cannot be verified as accurate (confidence 1) [0A188DC4], AccurateRip returned [17F9D1D8] (AR v2)
Copy OK
Track 8
Filename D:\zzz\08 - Mra.wav
Pre-gap length 0:00:06.40
Peak level 97.7 %
Extraction speed 2.9 X
Track quality 100.0 %
Test CRC 7486BDF8
Copy CRC 7486BDF8
Cannot be verified as accurate (confidence 1) [ECC1B99C], AccurateRip returned [C9D2EB37] (AR v2)
Copy OK
No tracks could be verified as accurate
You may have a different pressing from the one(s) in the database
No errors occurred
End of status report
==== Log checksum C049010B2039C730FD24B7014E0EE485AED01C28A02FEE21FCE16AC7510D4233 ====
 
Содержание индексной карты (.CUE)
REM GENRE "Big Band"
REM DATE 1994
REM DISCID 7E110A08
REM COMMENT "ExactAudioCopy v1.0b3"
PERFORMER "Chris McGregor's Brotherhood Of Breath"
TITLE "The Memorial Concert"
FILE "01 - Dakar.wav" WAVE
TRACK 01 AUDIO
TITLE "Dakar"
PERFORMER "Chris McGregor's Brotherhood Of Breath"
INDEX 01 00:00:00
FILE "02 - Sangena.wav" WAVE
TRACK 02 AUDIO
TITLE "Sangena"
PERFORMER "Chris McGregor's Brotherhood Of Breath"
INDEX 01 00:00:00
TRACK 03 AUDIO
TITLE "Andromeda"
PERFORMER "Chris McGregor's Brotherhood Of Breath"
INDEX 00 09:28:27
FILE "03 - Andromeda.wav" WAVE
INDEX 01 00:00:00
TRACK 04 AUDIO
TITLE "Big G"
PERFORMER "Chris McGregor's Brotherhood Of Breath"
INDEX 00 05:41:73
FILE "04 - Big G.wav" WAVE
INDEX 01 00:00:00
TRACK 05 AUDIO
TITLE "Lafente"
PERFORMER "Chris McGregor's Brotherhood Of Breath"
INDEX 00 10:04:17
FILE "05 - Lafente.wav" WAVE
INDEX 01 00:00:00
TRACK 06 AUDIO
TITLE "Bakwetha"
PERFORMER "Chris McGregor's Brotherhood Of Breath"
INDEX 00 09:03:70
FILE "06 - Bakwetha.wav" WAVE
INDEX 01 00:00:00
TRACK 07 AUDIO
TITLE "Country Cooking"
PERFORMER "Chris McGregor's Brotherhood Of Breath"
INDEX 00 10:36:63
FILE "07 - Country Cooking.wav" WAVE
INDEX 01 00:00:00
TRACK 08 AUDIO
TITLE "Mra"
PERFORMER "Chris McGregor's Brotherhood Of Breath"
INDEX 00 05:28:12
FILE "08 - Mra.wav" WAVE
INDEX 01 00:00:00
 
Лог проверки качества
d:\>d:\aucdtect -d/-m0 d:\zzz\*.wav
auCDtect: CD records authenticity detector, version 0.8.2
Copyright (c) 2004 Oleg Berngardt. All rights reserved.
Copyright (c) 2004 Alexander Djourik. All rights reserved.
------------------------------------------------------------
Processing file: [01. Dakar.wav]
------------------------------------------------------------
This track looks like CDDA with probability 100%
------------------------------------------------------------
Processing file: [02. Sangena.wav]
------------------------------------------------------------
This track looks like CDDA with probability 100%
------------------------------------------------------------
Processing file: [03. Andromeda.wav]
------------------------------------------------------------
This track looks like CDDA with probability 100%
------------------------------------------------------------
Processing file: [04. Big G.wav]
------------------------------------------------------------
This track looks like CDDA with probability 100%
------------------------------------------------------------
Processing file: [05. Lafente.wav]
------------------------------------------------------------
This track looks like CDDA with probability 100%
------------------------------------------------------------
Processing file: [06. Bakwetha.wav]
------------------------------------------------------------
This track looks like CDDA with probability 100%
------------------------------------------------------------
Processing file: [07. Country Cooking.wav]
------------------------------------------------------------
This track looks like CDDA with probability 100%
------------------------------------------------------------
Processing file: [08. Mra.wav]
------------------------------------------------------------
This track looks like CDDA with probability 100%
------------------------------------------------------------
Final Conclusion:
------------------------------------------------------------
These tracks looks like CDDA with probability 100%
Доп. информация:
 
Album Info
(Chris McGregor) - 1,2,3,6,7
(George Lee) - 4
(Dudu Pukwana, Pinise Saul) - 5
(Dudu Pukwana) - 8
(P)+(C)1994 by ITM Media
Cover: Klaus Untiet
Photo: M. Rinderspacher
 
Состав
Pinise Saul: vocals
Paul Taylor: trombone
Annie Whitehead: trombone
Dave Defries: trumpet & flugelhorn
Harry Beckett: trumpet & flugelhorn
Peter Volpe: trumpet & flugelhorn
Thomas Dyani: percussion
Daryl Leeque: percussion
Frank Williams: tenor saxophone
Ray Carles: alto saxophone
Julian Arguelles: baritone & soprano saxophone
Steve Williamson: alto, tenor & soprano saxophone
Robert Juritz: tenor saxophone & bassoon
Roland Perrin: piano
George Wolfaardt: bass (electric)
Gilbert Matthews: drums
По всем вопросам пишите личное сообщение пользователю M0p94ok.
03:59
218
Нет комментариев. Ваш будет первым!