Поиск

(Avant-Garde Jazz, Modern Composition) [CD] Franz Koglmann (feat. Tony Coe, Roberto Ottaviano, Radu Malfatti, Guillermo Gregorio, Fritz Hauser, Burkhard Stangl) - The Use Of Memory - 1991, FLAC (tracks+.cue), lossless

(Avant-Garde Jazz, Modern Composition) [CD] Franz Koglmann (feat. Tony Coe, Roberto Ottaviano, Radu Malfatti, Guillermo Gregorio, Fritz Hauser, Burkhard Stangl) - The Use Of Memory - 1991, FLAC (tracks+.cue), lossless
Треклист:
Franz Koglmann / The Use Of Memory
Жанр: Avant-Garde Jazz, Modern Composition
Носитель: CD
Страна-производитель диска: Switzerland
Год издания: 1991
Издатель (лейбл): Hat Hut Records
Номер по каталогу: hat ART CD 6078
Страна: Austria
Аудиокодек: FLAC (*.flac)
Тип рипа: tracks+.cue
Битрейт аудио: lossless
Продолжительность: 64:54
Источник (релизер): свой фирменный диск
Наличие сканов в содержимом раздачи:
Треклист:
1. Chateau De Bouges 9:39
2. For Max 4:33
3. The Use Of Memory: Bix, Miles And Chet 7:39
4. Das Ratsel Eines Tages 6:54
5. Der Vogel 10:12
6. Uccello 6:26
7. Monoblue 6:21
8. Die Kuhle, Der Duft, Der Glanz 6:16
9. Constantin's Dream 6:29
 
Лог создания рипа
Exact Audio Copy V1.0 beta 3 from 29. August 2011
EAC extraction logfile from 22. June 2014, 17:29
Franz Koglmann / The Use Of Memory
Used drive : PIONEER DVD-RW DVR-115D Adapter: 0 ID: 0
Read mode : Secure
Utilize accurate stream : Yes
Defeat audio cache : Yes
Make use of C2 pointers : No
Read offset correction : 48
Overread into Lead-In and Lead-Out : No
Fill up missing offset samples with silence : Yes
Delete leading and trailing silent blocks : No
Null samples used in CRC calculations : Yes
Used interface : Installed external ASPI interface
Gap handling : Appended to previous track
Used output format : User Defined Encoder
Selected bitrate : 896 kBit/s
Quality : High
Add ID3 tag : No
Command line compressor : C:\Program Files\Exact Audio Copy\FLAC\FLAC.EXE
Additional command line options : -6 -V -T "ARTIST=%artist%" -T "TITLE=%title%" -T "ALBUM=%albumtitle%" -T "DATE=%year%" -T "TRACKNUMBER=%tracknr%" -T "GENRE=%genre%" -T "COMMENT=%comment%" -T "BAND=%albuminterpret%" -T "COMPOSER=%composer%" %haslyrics%--tag-from-file=LYRICS="%lyricsfile%"%haslyrics% -T "DISCNUMBER=%cdnumber%" -T "TOTALDISCS=%totalcds%" -T "TOTALTRACKS=%numtracks%" %hascover%--picture="%coverfile%"%hascover% %source% -o %dest%
TOC of the extracted CD
Track | Start | Length | Start sector | End sector
---------------------------------------------------------
1 | 0:00.00 | 9:42.62 | 0 | 43711
2 | 9:42.62 | 4:36.00 | 43712 | 64411
3 | 14:18.62 | 7:42.00 | 64412 | 99061
4 | 22:00.62 | 6:57.00 | 99062 | 130336
5 | 28:57.62 | 10:15.00 | 130337 | 176461
6 | 39:12.62 | 6:29.00 | 176462 | 205636
7 | 45:41.62 | 6:24.00 | 205637 | 234436
8 | 52:05.62 | 6:19.00 | 234437 | 262861
9 | 58:24.62 | 6:29.13 | 262862 | 292049
Track 1
Filename D:\zzz\01 - Chateau De Bouges.wav
Pre-gap length 0:00:02.00
Peak level 92.7 %
Extraction speed 5.5 X
Track quality 100.0 %
Test CRC 89DB26E9
Copy CRC 89DB26E9
Accurately ripped (confidence 2) [57003FA9] (AR v2)
Copy OK
Track 2
Filename D:\zzz\02 - For Max.wav
Pre-gap length 0:00:02.62
Peak level 91.4 %
Extraction speed 5.8 X
Track quality 100.0 %
Test CRC 1DD2135C
Copy CRC 1DD2135C
Accurately ripped (confidence 3) [7BDA8F86] (AR v2)
Copy OK
Track 3
Filename D:\zzz\03 - The Use Of Memory- Bix, Miles And Chet.wav
Pre-gap length 0:00:02.62
Peak level 96.5 %
Extraction speed 6.6 X
Track quality 100.0 %
Test CRC D481B320
Copy CRC D481B320
Accurately ripped (confidence 3) [EC9AFEB6] (AR v2)
Copy OK
Track 4
Filename D:\zzz\04 - Das Ratsel Eines Tages.wav
Pre-gap length 0:00:02.62
Peak level 91.1 %
Extraction speed 6.1 X
Track quality 99.9 %
Test CRC 858CFCF9
Copy CRC 858CFCF9
Accurately ripped (confidence 3) [C5CB044A] (AR v2)
Copy OK
Track 5
Filename D:\zzz\05 - Der Vogel.wav
Pre-gap length 0:00:02.62
Peak level 99.3 %
Extraction speed 8.0 X
Track quality 100.0 %
Test CRC 4636D39C
Copy CRC 4636D39C
Accurately ripped (confidence 2) [6FC0288B] (AR v2)
Copy OK
Track 6
Filename D:\zzz\06 - Uccello.wav
Pre-gap length 0:00:02.62
Peak level 94.9 %
Extraction speed 8.2 X
Track quality 100.0 %
Test CRC 693BEFA7
Copy CRC 693BEFA7
Accurately ripped (confidence 3) [09A0C44B] (AR v2)
Copy OK
Track 7
Filename D:\zzz\07 - Monoblue.wav
Pre-gap length 0:00:02.62
Peak level 73.7 %
Extraction speed 8.6 X
Track quality 100.0 %
Test CRC 18703A95
Copy CRC 18703A95
Accurately ripped (confidence 3) [FC6965D8] (AR v2)
Copy OK
Track 8
Filename D:\zzz\08 - Die Kuhle, Der Duft, Der Glanz.wav
Pre-gap length 0:00:02.62
Peak level 91.1 %
Extraction speed 8.9 X
Track quality 100.0 %
Test CRC 83E3E862
Copy CRC 83E3E862
Accurately ripped (confidence 2) [4056DAF0] (AR v2)
Copy OK
Track 9
Filename D:\zzz\09 - Constantin's Dream.wav
Pre-gap length 0:00:02.62
Peak level 91.3 %
Extraction speed 9.2 X
Track quality 100.0 %
Test CRC D6696B32
Copy CRC D6696B32
Accurately ripped (confidence 3) [C08BBB37] (AR v2)
Copy OK
All tracks accurately ripped
No errors occurred
End of status report
==== Log checksum D99FC62779AD65A146931C2BDD7D493F8FBEAA141780CD918920D57D267FBF36 ====
 
Содержание индексной карты (.CUE)
REM GENRE "Modern Composition"
REM DATE 1991
REM DISCID 760F3609
REM COMMENT "ExactAudioCopy v1.0b3"
PERFORMER "Franz Koglmann"
TITLE "The Use Of Memory"
FILE "01 - Chateau De Bouges.wav" WAVE
TRACK 01 AUDIO
TITLE "Chateau De Bouges"
PERFORMER "Franz Koglmann"
INDEX 01 00:00:00
TRACK 02 AUDIO
TITLE "For Max"
PERFORMER "Franz Koglmann"
INDEX 00 09:40:00
FILE "02 - For Max.wav" WAVE
INDEX 01 00:00:00
TRACK 03 AUDIO
TITLE "The Use Of Memory: Bix, Miles And Chet"
PERFORMER "Franz Koglmann"
INDEX 00 04:33:13
FILE "03 - The Use Of Memory- Bix, Miles And Chet.wav" WAVE
INDEX 01 00:00:00
TRACK 04 AUDIO
TITLE "Das Ratsel Eines Tages"
PERFORMER "Franz Koglmann"
INDEX 00 07:39:13
FILE "04 - Das Ratsel Eines Tages.wav" WAVE
INDEX 01 00:00:00
TRACK 05 AUDIO
TITLE "Der Vogel"
PERFORMER "Franz Koglmann"
INDEX 00 06:54:13
FILE "05 - Der Vogel.wav" WAVE
INDEX 01 00:00:00
TRACK 06 AUDIO
TITLE "Uccello"
PERFORMER "Franz Koglmann"
INDEX 00 10:12:13
FILE "06 - Uccello.wav" WAVE
INDEX 01 00:00:00
TRACK 07 AUDIO
TITLE "Monoblue"
PERFORMER "Franz Koglmann"
INDEX 00 06:26:13
FILE "07 - Monoblue.wav" WAVE
INDEX 01 00:00:00
TRACK 08 AUDIO
TITLE "Die Kuhle, Der Duft, Der Glanz"
PERFORMER "Franz Koglmann"
INDEX 00 06:21:13
FILE "08 - Die Kuhle, Der Duft, Der Glanz.wav" WAVE
INDEX 01 00:00:00
TRACK 09 AUDIO
TITLE "Constantin's Dream"
PERFORMER "Franz Koglmann"
INDEX 00 06:16:13
FILE "09 - Constantin's Dream.wav" WAVE
INDEX 01 00:00:00
 
Лог проверки качества
d:\>d:\aucdtect -d/-m0 d:\zzz\*.wav
auCDtect: CD records authenticity detector, version 0.8.2
Copyright (c) 2004 Oleg Berngardt. All rights reserved.
Copyright (c) 2004 Alexander Djourik. All rights reserved.
------------------------------------------------------------
Processing file: [01. Chateau De Bouges.wav]
------------------------------------------------------------
This track looks like CDDA with probability 100%
------------------------------------------------------------
Processing file: [02. For Max.wav]
------------------------------------------------------------
This track looks like CDDA with probability 100%
------------------------------------------------------------
Processing file: [03. The Use Of Memory- Bix, Miles And Chet.wav]
------------------------------------------------------------
This track looks like CDDA with probability 100%
------------------------------------------------------------
Processing file: [04. Das Ratsel Eines Tages.wav]
------------------------------------------------------------
This track looks like CDDA with probability 100%
------------------------------------------------------------
Processing file: [05. Der Vogel.wav]
------------------------------------------------------------
This track looks like CDDA with probability 100%
------------------------------------------------------------
Processing file: [06. Uccello.wav]
------------------------------------------------------------
This track looks like CDDA with probability 100%
------------------------------------------------------------
Processing file: [07. Monoblue.wav]
------------------------------------------------------------
This track looks like CDDA with probability 100%
------------------------------------------------------------
Processing file: [08. Die Kuhle, Der Duft, Der Glanz.wav]
------------------------------------------------------------
This track looks like CDDA with probability 100%
------------------------------------------------------------
Processing file: [09. Constantin's Dream.wav]
------------------------------------------------------------
This track looks like CDDA with probability 85%
------------------------------------------------------------
Final Conclusion:
------------------------------------------------------------
These tracks looks like CDDA with probability 100%
Доп. информация:
 
Album Info & AMG Review
1. dedicated to Alain Resnais
2. dedicated to Max Aichinger
3. quoting from Miles Davis' 'Tune Up', passages from an improvisation by Chet Baker on 'Tune Up' and Larry Shields' 'Clarinet Marmelade'
4. inspired by Giorgio de Chirico
5. dedicated to Jean Cocteau
7. dedicated to Yves Klein
8. hommage a Franz Schubert, dedicated to Ingrid Karl
9. inspired by Piero della Francesca
All compositions by Franz Koglmann
Digital two-track recording by Peter Pfister on October 22-24, 1990 at Theater Westend, Zurich/Switzerland
Cover painting: Helmut Federle, Form des Verhaltnisses in drei Variationen, 1990, oil on canvas, 60x40 cm.
Liner notes: Peter Niklas Wilson, January 1991
Photo: Dany Gignoux
Design: Walter Bosshardt
Produced by Werner Wunderlich, Pia and Werner X. Uehlinger
This live debut of Franz Koglmann's mammoth work The Use of Memory, in nine sections or movements, was heralded not by the triumph of cheers and the awe of applause, but by critical remarks from journalists with hard-line views of what jazz "is" or "isn't." Too bad. Americans have come more and more to view Euro-jazz as its own thing that has little to do with the music of origin but is no less valid, and have also accepted classical music -- including "new music" -- for decades. Apparently, those busy carving out an identity from an inferiority complex find it impossible to hear genius when it is right in front of them, bleating its heart out. The Use of Memory is a stellar achievement, and a great thank you to Hat Hut is warranted for recording this first performance. This is a suite that has all the earmarks of a symphony, or a symphony that has the emotive and improvisatory ability to be a full-blown jazz suite. But it is neither. This work so thoroughly combines jazz, "new music," and Western classical music that it is almost impossible to separate the threads. Praise the lord. Utilizing the gifts of 13 players -- including himself -- and the conducting expertise of Gustav Bauer, Koglmann realized a dream. He created with his Pipetet -- a group that also includes pianos and electric guitars as well as reeds and woodwinds -- a place where music becomes nothing other than itself. It becomes what it recalls as being true from its origins and moves on, picking up along the way other memories as passengers, weaving them into its fabric. Koglmann has his players and audiences moving through everything from Berg to Ellington, Stravinsky, Miles, Gil Evans, George Russell, Schoenberg, Stockhausen, Mahler, Webern, Armstrong, Basie, Beiderbecke, Coltrane, Cowell, Cage, and even Wagner -- and so many more you would have to hear it a thousand times to note them all. This is a love song, ultimately, a swinging yet meditative and tender amorous paean to not only Koglmann's heroes, but to his dream of a music that contains no genres -- only beauty. And on this recording, he's gone further than any of his predecessors to making it a reality.
 
Состав
Franz Koglmann Pipetet:
Mario Arcari: oboe & english horn
Martin Schelling: clarinet & bassclarinet
Tony Coe: clarinet, bassclarinet & tenorsaxophone
Roberto Ottaviano: soprano- & sopraninosaxophone
Guillermo Gregorio: altosaxophone
Franz Koglmann: flugelhorn
Jean-Christophe Mastnak: french horn
Radu Malfatti: trombone
Raoul Herget: tuba
Burkhard Stangl: guitar
Robert M. Weiss: piano
Klaus Koch: bass
Fritz Hauser: drums
Conducted by Gustav Bauer
Приватный:
Нет (DHT включён)
Размер:
292.12 Мб (306,312,350 байт) » файлов: 16
Участники:
0 раздают, 0 качают (0 участников всего)
Внешние участники:
2 раздают, 1 качают (3 участников всего) [ Обновить ]
Есть вопросы - пишите личное сообщение пользователю M0p94ok.
03:58
26
Нет комментариев. Ваш будет первым!