Вы используете незарегистрированную версию компонента "Вкладки"!

Поиск

(Avant-Garde, Free Improvisation, Unit Records) [CD] Katrin Scholl / Daniel Erismann / Lucas Niggli & Fred Frith / Hans Koch / Peter Kowald - NIL - 1995, FLAC (tracks+.cue), lossless

(Avant-Garde, Free Improvisation, Unit Records) [CD] Katrin Scholl / Daniel Erismann / Lucas Niggli & Fred Frith / Hans Koch / Peter Kowald - NIL - 1995, FLAC (tracks+.cue), lossless
Треклист:
Scholl / Erismann / Niggli & Frith / Koch / Kowald – NIL
Жанр: Avant-Garde, Free Improvisation, Unit Records
Носитель: CD
Страна-производитель диска: Switzerland
Год издания: 1995
Издатель (лейбл): Unit Records
Номер по каталогу: UTR 4083 CD
Аудиокодек: FLAC (*.flac)
Тип рипа: tracks+.cue
Битрейт аудио: lossless
Продолжительность: 1:00:30
Источник (релизер): я
Наличие сканов в содержимом раздачи: да
Треклист:
01. Khartum 9:24
02. Hippopotamus 3:10
03. Chipmunk 4:06
04. Boggy 2:26
05. Chit-Chat 1:14
06. Col legno 1:45
07. Introduction 0:14
08. Sobek 7:04
09. Saki ni dozo 3:58
10. Tricéphale 7:59
11. Sukunaku 6:24
12. Give the Cat a Fish 2:23
13. NIL 9:13
14. Poppy Cock 1:10
All music by Scholl / Erismann / Niggli / Frith / Koch / Kowald.
Recorded live at Forum Wuppertal, March 16-18th, 1995.
Katrin Scholl – Violin
Daniel Erismann – Trumpet, Flugelhorn & Percussion
Hans Koch – Soprano and Tenor Saxophones, Bass Clarinet
Fred Frith – Guitar
Peter Kowald – Bass
Lucas Niggli – Drums & Percussion
 
Лог создания рипа
Exact Audio Copy V1.0 beta 3 from 29. August 2011
EAC extraction logfile from 11. August 2014, 19:46
Scholl / Erismann / Niggli & Frith / Koch / Kowald / NIL
Used drive : SlimtypeeNAU508 5 Adapter: 1 ID: 0
Read mode : Secure
Utilize accurate stream : Yes
Defeat audio cache : Yes
Make use of C2 pointers : No
Read offset correction : 6
Overread into Lead-In and Lead-Out : No
Fill up missing offset samples with silence : Yes
Delete leading and trailing silent blocks : No
Null samples used in CRC calculations : Yes
Used interface : Native Win32 interface for Win NT & 2000
Gap handling : Appended to previous track
Used output format : User Defined Encoder
Selected bitrate : 768 kBit/s
Quality : High
Add ID3 tag : No
Command line compressor : C:\Program Files (x86)\Exact Audio Copy\Flac\flac.exe
Additional command line options : -8 -V -T "ARTIST=%artist%" -T "TITLE=%title%" -T "ALBUM=%albumtitle%" -T "DATE=%year%" -T "TRACKNUMBER=%tracknr%" -T "TOTALTRACKS=%numtracks%" -T "GENRE=%genre%" -T "ALBUMARTIST=%albumartist%" -T "ALBUM ARTIST=%albumartist%" -T "COMMENT=EAC Secure Mode, Test & Copy, AccurateRip, FLAC -8" %source%
TOC of the extracted CD
Track | Start | Length | Start sector | End sector
---------------------------------------------------------
1 | 0:00.50 | 9:24.00 | 50 | 42349
2 | 9:24.50 | 3:10.00 | 42350 | 56599
3 | 12:34.50 | 4:06.00 | 56600 | 75049
4 | 16:40.50 | 2:26.00 | 75050 | 85999
5 | 19:06.50 | 1:13.50 | 86000 | 91524
6 | 20:20.25 | 1:45.25 | 91525 | 99424
7 | 22:05.50 | 0:14.00 | 99425 | 100474
8 | 22:19.50 | 7:04.00 | 100475 | 132274
9 | 29:23.50 | 3:58.00 | 132275 | 150124
10 | 33:21.50 | 7:59.00 | 150125 | 186049
11 | 41:20.50 | 6:24.00 | 186050 | 214849
12 | 47:44.50 | 2:23.00 | 214850 | 225574
13 | 50:07.50 | 9:12.57 | 225575 | 267031
14 | 59:20.32 | 1:10.28 | 267032 | 272309
Track 1
Filename C:\EAC rips\01 - Khartum.wav
Pre-gap length 0:00:02.50
Peak level 97.2 %
Extraction speed 1.3 X
Track quality 100.0 %
Test CRC 11B9D2C0
Copy CRC 11B9D2C0
Accurately ripped (confidence 2) [EB89A5EA] (AR v2)
Copy OK
Track 2
Filename C:\EAC rips\02 - Hippopotamus.wav
Pre-gap length 0:00:05.08
Peak level 92.7 %
Extraction speed 1.3 X
Track quality 100.0 %
Test CRC 52D0C55E
Copy CRC 52D0C55E
Accurately ripped (confidence 2) [FFF8F408] (AR v2)
Copy OK
Track 3
Filename C:\EAC rips\03 - Chipmunk.wav
Pre-gap length 0:00:03.00
Peak level 99.1 %
Extraction speed 1.3 X
Track quality 99.9 %
Test CRC 393BB5F8
Copy CRC 393BB5F8
Accurately ripped (confidence 2) [62B2AB8E] (AR v2)
Copy OK
Track 4
Filename C:\EAC rips\04 - Boggy.wav
Pre-gap length 0:00:03.20
Peak level 74.9 %
Extraction speed 1.4 X
Track quality 100.0 %
Test CRC 48862DD0
Copy CRC 48862DD0
Accurately ripped (confidence 2) [6BBC113D] (AR v2)
Copy OK
Track 5
Filename C:\EAC rips\05 - Chit-Chat.wav
Pre-gap length 0:00:01.58
Peak level 90.4 %
Extraction speed 0.9 X
Track quality 99.8 %
Test CRC B1609146
Copy CRC B1609146
Accurately ripped (confidence 2) [661581A5] (AR v2)
Copy OK
Track 6
Filename C:\EAC rips\06 - Col legno.wav
Peak level 84.9 %
Extraction speed 1.4 X
Track quality 100.0 %
Test CRC 1EE83CDE
Copy CRC 1EE83CDE
Accurately ripped (confidence 2) [55D713C8] (AR v2)
Copy OK
Track 7
Filename C:\EAC rips\07 - Introduction.wav
Pre-gap length 0:00:02.13
Peak level 2.5 %
Extraction speed 0.5 X
Track quality 100.0 %
Test CRC 25E43E3B
Copy CRC 25E43E3B
Accurately ripped (confidence 2) [F36C4FD4] (AR v2)
Copy OK
Track 8
Filename C:\EAC rips\08 - Sobek.wav
Peak level 91.5 %
Extraction speed 1.8 X
Track quality 100.0 %
Test CRC A067AFED
Copy CRC A067AFED
Accurately ripped (confidence 2) [612EBEB3] (AR v2)
Copy OK
Track 9
Filename C:\EAC rips\09 - Saki ni dozo.wav
Pre-gap length 0:00:03.55
Peak level 72.8 %
Extraction speed 1.8 X
Track quality 100.0 %
Test CRC 021E514B
Copy CRC 021E514B
Accurately ripped (confidence 2) [BA95E396] (AR v2)
Copy OK
Track 10
Filename C:\EAC rips\10 - Tricéphale.wav
Pre-gap length 0:00:03.05
Peak level 100.0 %
Extraction speed 2.0 X
Track quality 100.0 %
Test CRC 4BAE8EB2
Copy CRC 4BAE8EB2
Accurately ripped (confidence 2) [54E0117F] (AR v2)
Copy OK
Track 11
Filename C:\EAC rips\11 - Sukunaku.wav
Pre-gap length 0:00:03.28
Peak level 91.4 %
Extraction speed 2.1 X
Track quality 100.0 %
Test CRC 4948A91F
Copy CRC 4948A91F
Accurately ripped (confidence 2) [05F8E062] (AR v2)
Copy OK
Track 12
Filename C:\EAC rips\12 - Give the Cat a Fish.wav
Pre-gap length 0:00:03.70
Peak level 98.5 %
Extraction speed 1.9 X
Track quality 100.0 %
Test CRC 134D074C
Copy CRC 134D074C
Accurately ripped (confidence 2) [D0C8AF1C] (AR v2)
Copy OK
Track 13
Filename C:\EAC rips\13 - NIL.wav
Pre-gap length 0:00:03.45
Peak level 100.0 %
Extraction speed 2.2 X
Track quality 99.9 %
Test CRC 32C82A25
Copy CRC 32C82A25
Accurately ripped (confidence 2) [8C181764] (AR v2)
Copy OK
Track 14
Filename C:\EAC rips\14 - Poppy Cock.wav
Pre-gap length 0:00:19.07
Peak level 96.1 %
Extraction speed 1.2 X
Track quality 99.8 %
Test CRC 24211CC3
Copy CRC 24211CC3
Accurately ripped (confidence 2) [44EC9E88] (AR v2)
Copy OK
All tracks accurately ripped
No errors occurred
End of status report
---- CUETools DB Plugin V2.1.4
[CTDB TOCID: 5ltrdgV1sqazQOM8JNsUTcy_rEw-] disk not present in database
Submit result: 5ltrdgV1sqazQOM8JNsUTcy_rEw- has been uploaded
==== Log checksum 3F2EEFFF38E558C57B2BB73EE1E5976BBA481708D8DD6FE31D48191B5B4E4739 ====
 
Содержание индексной карты (.CUE)
REM GENRE Jazz
REM DATE 1995
REM DISCID AD0E2E0E
REM COMMENT "ExactAudioCopy v1.0b3"
PERFORMER "Scholl / Erismann / Niggli & Frith / Koch / Kowald"
TITLE "NIL"
FILE "01 - Khartum.wav" WAVE
TRACK 01 AUDIO
TITLE "Khartum"
PERFORMER "Scholl / Erismann / Niggli & Frith / Koch / Kowald"
PREGAP 00:00:50
INDEX 01 00:00:00
TRACK 02 AUDIO
TITLE "Hippopotamus"
PERFORMER "Scholl / Erismann / Niggli & Frith / Koch / Kowald"
INDEX 00 09:18:67
FILE "02 - Hippopotamus.wav" WAVE
INDEX 01 00:00:00
TRACK 03 AUDIO
TITLE "Chipmunk"
PERFORMER "Scholl / Erismann / Niggli & Frith / Koch / Kowald"
INDEX 00 03:07:00
FILE "03 - Chipmunk.wav" WAVE
INDEX 01 00:00:00
TRACK 04 AUDIO
TITLE "Boggy"
PERFORMER "Scholl / Erismann / Niggli & Frith / Koch / Kowald"
INDEX 00 04:02:55
FILE "04 - Boggy.wav" WAVE
INDEX 01 00:00:00
TRACK 05 AUDIO
TITLE "Chit-Chat"
PERFORMER "Scholl / Erismann / Niggli & Frith / Koch / Kowald"
INDEX 00 02:24:17
FILE "05 - Chit-Chat.wav" WAVE
INDEX 01 00:00:00
FILE "06 - Col legno.wav" WAVE
TRACK 06 AUDIO
TITLE "Col legno"
PERFORMER "Scholl / Erismann / Niggli & Frith / Koch / Kowald"
INDEX 01 00:00:00
TRACK 07 AUDIO
TITLE "Introduction"
PERFORMER "Scholl / Erismann / Niggli & Frith / Koch / Kowald"
INDEX 00 01:43:12
FILE "07 - Introduction.wav" WAVE
INDEX 01 00:00:00
FILE "08 - Sobek.wav" WAVE
TRACK 08 AUDIO
TITLE "Sobek"
PERFORMER "Scholl / Erismann / Niggli & Frith / Koch / Kowald"
INDEX 01 00:00:00
TRACK 09 AUDIO
TITLE "Saki ni dozo"
PERFORMER "Scholl / Erismann / Niggli & Frith / Koch / Kowald"
INDEX 00 07:00:20
FILE "09 - Saki ni dozo.wav" WAVE
INDEX 01 00:00:00
TRACK 10 AUDIO
TITLE "Tricéphale"
PERFORMER "Scholl / Erismann / Niggli & Frith / Koch / Kowald"
INDEX 00 03:54:70
FILE "10 - Tricéphale.wav" WAVE
INDEX 01 00:00:00
TRACK 11 AUDIO
TITLE "Sukunaku"
PERFORMER "Scholl / Erismann / Niggli & Frith / Koch / Kowald"
INDEX 00 07:55:47
FILE "11 - Sukunaku.wav" WAVE
INDEX 01 00:00:00
TRACK 12 AUDIO
TITLE "Give the Cat a Fish"
PERFORMER "Scholl / Erismann / Niggli & Frith / Koch / Kowald"
INDEX 00 06:20:05
FILE "12 - Give the Cat a Fish.wav" WAVE
INDEX 01 00:00:00
TRACK 13 AUDIO
TITLE "NIL"
PERFORMER "Scholl / Erismann / Niggli & Frith / Koch / Kowald"
INDEX 00 02:19:30
FILE "13 - NIL.wav" WAVE
INDEX 01 00:00:00
TRACK 14 AUDIO
TITLE "Poppy Cock"
PERFORMER "Scholl / Erismann / Niggli & Frith / Koch / Kowald"
INDEX 00 08:53:50
FILE "14 - Poppy Cock.wav" WAVE
INDEX 01 00:00:00
 
detailed personnel


По всем вопросам пишите личное сообщение пользователю M0p94ok.
03:58
210
Нет комментариев. Ваш будет первым!