Поиск

(Blues Rock, Free Jazz) [CD] Jef Lee Johnson - Thisness - 2007, FLAC (tracks+.cue), lossless

(Blues Rock, Free Jazz) [CD] Jef Lee Johnson - Thisness - 2007, FLAC (tracks+.cue), lossless
Треклист:
JEF LEE JOHNSONTHISNESS
Жанр: Blues Rock, Free Jazz
Носитель: CD
Страна-производитель диска: France
Год издания: 2007
Издатель (лейбл): Hope Street
Номер по каталогу: HS10048
Страна: US
Аудиокодек: FLAC (*.flac)
Тип рипа: tracks+.cue
Битрейт аудио: lossless
Продолжительность: 01:06:13
Источник: xtradl.com
Наличие сканов: обложка из сети

 
Треклист

01. Thisness (0:32)
02. Move (8:35)
03. Compared to What (11:59)
04. It Ain't Hard For You (3:02)
05. Everything Starts Right Now (9:46)
06. Sorry Angel (Feat. Nathalie Richard) (4:33)
07. Cued Indifference (1:24)
08. Le Chien (Feat. Nathalie Richard) (9:05)
09. Things Ain't What They Was (0:56)
10. Thisness Now (0:51)
11. Law And Order (10:17)
12. Volunteered Slavery (4:41)
13. La Chanson Silencieuse (0:31)
 
Лог создания рипа
Exact Audio Copy V1.0 beta 3 from 29. August 2011
EAC extraction logfile from 13. August 2014, 20:05
Jeff Lee Johnson / Thisness
Used drive : ASUS DRW-2014L1T Adapter: 1 ID: 0
Read mode : Secure
Utilize accurate stream : Yes
Defeat audio cache : Yes
Make use of C2 pointers : No
Read offset correction : 6
Overread into Lead-In and Lead-Out : No
Fill up missing offset samples with silence : Yes
Delete leading and trailing silent blocks : No
Null samples used in CRC calculations : Yes
Used interface : Native Win32 interface for Win NT & 2000
Gap handling : Appended to previous track
Used output format : User Defined Encoder
Selected bitrate : 1024 kBit/s
Quality : High
Add ID3 tag : No
Command line compressor : C:\Program Files\FLAC\flac.exe
Additional command line options : -8 -V -T "ARTIST=%artist%" -T "TITLE=%title%" -T "ALBUM=%albumtitle%" -T "DATE=%year%" -T "TRACKNUMBER=%tracknr%" -T "GENRE=%genre%" -T "PERFORMER=%albuminterpret%" -T "COMPOSER=%composer%" %haslyrics%--tag-from-file=LYRICS="%lyricsfile%"%haslyrics% -T "ALBUMARTIST=%albumartist%" -T "DISCNUMBER=%cdnumber%" -T "TOTALDISCS=%totalcds%" -T "TOTALTRACKS=%numtracks%" -T "COMMENT=%comment%" %source% -o %dest%
TOC of the extracted CD
Track | Start | Length | Start sector | End sector
---------------------------------------------------------
1 | 0:00.00 | 0:31.66 | 0 | 2390
2 | 0:31.66 | 8:35.16 | 2391 | 41031
3 | 9:07.07 | 11:58.38 | 41032 | 94919
4 | 21:05.45 | 3:02.33 | 94920 | 108602
5 | 24:08.03 | 9:46.19 | 108603 | 152571
6 | 33:54.22 | 4:33.27 | 152572 | 173073
7 | 38:27.49 | 1:23.74 | 173074 | 179372
8 | 39:51.48 | 9:05.05 | 179373 | 220252
9 | 48:56.53 | 0:56.21 | 220253 | 224473
10 | 49:52.74 | 0:50.43 | 224474 | 228266
11 | 50:43.42 | 10:17.10 | 228267 | 274551
12 | 61:00.52 | 4:41.14 | 274552 | 295640
13 | 65:41.66 | 0:30.64 | 295641 | 297954
Track 1
Filename G:\EAC Rip\Jeff Lee Johnson - 2005 - Thisness - FLAC\01 - Thisness.wav
Pre-gap length 0:00:02.00
Peak level 63.1 %
Extraction speed 1.3 X
Track quality 99.6 %
Test CRC 2F801BDA
Copy CRC 2F801BDA
Accurately ripped (confidence 1) [83C8A8DF] (AR v1)
Copy OK
Track 2
Filename G:\EAC Rip\Jeff Lee Johnson - 2005 - Thisness - FLAC\02 - Move.wav
Peak level 100.0 %
Extraction speed 5.8 X
Track quality 100.0 %
Test CRC 48CD7267
Copy CRC 48CD7267
Accurately ripped (confidence 1) [8625BD5B] (AR v1)
Copy OK
Track 3
Filename G:\EAC Rip\Jeff Lee Johnson - 2005 - Thisness - FLAC\03 - Compared to What.wav
Peak level 100.0 %
Extraction speed 7.1 X
Track quality 100.0 %
Test CRC F6076E22
Copy CRC F6076E22
Accurately ripped (confidence 1) [2BB1CD5B] (AR v1)
Copy OK
Track 4
Filename G:\EAC Rip\Jeff Lee Johnson - 2005 - Thisness - FLAC\04 - It Ain't Hard For You.wav
Pre-gap length 0:00:00.25
Peak level 94.4 %
Extraction speed 6.9 X
Track quality 100.0 %
Test CRC E577BE14
Copy CRC E577BE14
Accurately ripped (confidence 1) [3439B8CA] (AR v1)
Copy OK
Track 5
Filename G:\EAC Rip\Jeff Lee Johnson - 2005 - Thisness - FLAC\05 - Everything Starts Right Now.wav
Pre-gap length 0:00:00.29
Peak level 100.0 %
Extraction speed 8.4 X
Track quality 100.0 %
Test CRC 126F0406
Copy CRC 126F0406
Accurately ripped (confidence 1) [1B8F98AE] (AR v1)
Copy OK
Track 6
Filename G:\EAC Rip\Jeff Lee Johnson - 2005 - Thisness - FLAC\06 - Sorry Angel (Feat. Nathalie Richard).wav
Pre-gap length 0:00:02.33
Peak level 100.0 %
Extraction speed 8.4 X
Track quality 100.0 %
Test CRC 890CAFE8
Copy CRC 890CAFE8
Accurately ripped (confidence 1) [92CAE9CF] (AR v1)
Copy OK
Track 7
Filename G:\EAC Rip\Jeff Lee Johnson - 2005 - Thisness - FLAC\07 - Cued Indifference.wav
Pre-gap length 0:00:00.65
Peak level 100.0 %
Extraction speed 4.4 X
Track quality 99.8 %
Test CRC 183AFC80
Copy CRC 183AFC80
Accurately ripped (confidence 1) [052F20EF] (AR v1)
Copy OK
Track 8
Filename G:\EAC Rip\Jeff Lee Johnson - 2005 - Thisness - FLAC\08 - Le Chien (Feat. Nathalie Richard).wav
Peak level 100.0 %
Extraction speed 9.6 X
Track quality 100.0 %
Test CRC 4D961DE6
Copy CRC 4D961DE6
Accurately ripped (confidence 1) [7946BBCD] (AR v1)
Copy OK
Track 9
Filename G:\EAC Rip\Jeff Lee Johnson - 2005 - Thisness - FLAC\09 - Things Ain't What They Was.wav
Peak level 100.0 %
Extraction speed 6.2 X
Track quality 100.0 %
Test CRC 7BDB03C7
Copy CRC 7BDB03C7
Accurately ripped (confidence 1) [4475115B] (AR v1)
Copy OK
Track 10
Filename G:\EAC Rip\Jeff Lee Johnson - 2005 - Thisness - FLAC\10 - Thisness Now.wav
Peak level 69.3 %
Extraction speed 6.0 X
Track quality 100.0 %
Test CRC 143AB9AC
Copy CRC 143AB9AC
Accurately ripped (confidence 1) [02900698] (AR v1)
Copy OK
Track 11
Filename G:\EAC Rip\Jeff Lee Johnson - 2005 - Thisness - FLAC\11 - Law And Order.wav
Peak level 100.0 %
Extraction speed 10.5 X
Track quality 100.0 %
Test CRC 7AB541AB
Copy CRC 7AB541AB
Accurately ripped (confidence 1) [9E3E559D] (AR v1)
Copy OK
Track 12
Filename G:\EAC Rip\Jeff Lee Johnson - 2005 - Thisness - FLAC\12 - Volunteered Slavery.wav
Pre-gap length 0:00:02.33
Peak level 99.9 %
Extraction speed 7.7 X
Track quality 99.9 %
Test CRC 5BA06170
Copy CRC 5BA06170
Accurately ripped (confidence 1) [E549FBDA] (AR v1)
Copy OK
Track 13
Filename G:\EAC Rip\Jeff Lee Johnson - 2005 - Thisness - FLAC\13 - La Chanson Silencieuse.wav
Pre-gap length 0:00:05.22
Peak level 1.3 %
Extraction speed 2.7 X
Track quality 99.6 %
Test CRC 3284AC41
Copy CRC 3284AC41
Accurately ripped (confidence 1) [6509939E] (AR v1)
Copy OK
All tracks accurately ripped
No errors occurred
End of status report
==== Log checksum 4AB7D37963CFFCD0AF9E2BABCBBF45E6997198985C65D67628E3D760C0408780 ====
 
Индексная карта (.CUE)
REM GENRE Jazz+Rock
REM DATE 2005
REM DISCID BC0F840D
REM COMMENT "ExactAudioCopy v1.0b3"
PERFORMER "Jeff Lee Johnson"
TITLE "Thisness"
FILE "01 - Thisness.wav" WAVE
TRACK 01 AUDIO
TITLE "Thisness"
PERFORMER "Jeff Lee Johnson"
INDEX 01 00:00:00
FILE "02 - Move.wav" WAVE
TRACK 02 AUDIO
TITLE "Move"
PERFORMER "Jeff Lee Johnson"
INDEX 01 00:00:00
FILE "03 - Compared to What.wav" WAVE
TRACK 03 AUDIO
TITLE "Compared to What"
PERFORMER "Jeff Lee Johnson"
INDEX 01 00:00:00
TRACK 04 AUDIO
TITLE "It Ain't Hard For You"
PERFORMER "Jeff Lee Johnson"
INDEX 00 11:58:19
FILE "04 - It Ain't Hard For You.wav" WAVE
INDEX 01 00:00:00
TRACK 05 AUDIO
TITLE "Everything Starts Right Now"
PERFORMER "Jeff Lee Johnson"
INDEX 00 03:02:11
FILE "05 - Everything Starts Right Now.wav" WAVE
INDEX 01 00:00:00
TRACK 06 AUDIO
TITLE "Sorry Angel (Feat. Nathalie Richard)"
PERFORMER "Jeff Lee Johnson"
INDEX 00 09:43:69
FILE "06 - Sorry Angel (Feat. Nathalie Richard).wav" WAVE
INDEX 01 00:00:00
TRACK 07 AUDIO
TITLE "Cued Indifference"
PERFORMER "Jeff Lee Johnson"
INDEX 00 04:32:53
FILE "07 - Cued Indifference.wav" WAVE
INDEX 01 00:00:00
FILE "08 - Le Chien (Feat. Nathalie Richard).wav" WAVE
TRACK 08 AUDIO
TITLE "Le Chien (Feat. Nathalie Richard)"
PERFORMER "Jeff Lee Johnson"
INDEX 01 00:00:00
FILE "09 - Things Ain't What They Was.wav" WAVE
TRACK 09 AUDIO
TITLE "Things Ain't What They Was"
PERFORMER "Jeff Lee Johnson"
INDEX 01 00:00:00
FILE "10 - Thisness Now.wav" WAVE
TRACK 10 AUDIO
TITLE "Thisness Now"
PERFORMER "Jeff Lee Johnson"
INDEX 01 00:00:00
FILE "11 - Law And Order.wav" WAVE
TRACK 11 AUDIO
TITLE "Law And Order"
PERFORMER "Jeff Lee Johnson"
INDEX 01 00:00:00
TRACK 12 AUDIO
TITLE "Volunteered Slavery"
PERFORMER "Jeff Lee Johnson"
INDEX 00 10:14:60
FILE "12 - Volunteered Slavery.wav" WAVE
INDEX 01 00:00:00
TRACK 13 AUDIO
TITLE "La Chanson Silencieuse"
PERFORMER "Jeff Lee Johnson"
INDEX 00 04:35:72
FILE "13 - La Chanson Silencieuse.wav" WAVE
INDEX 01 00:00:00
 
Лог проверки качества
-----------------------
DON'T MODIFY THIS FILE
-----------------------
PERFORMER: auCDtect Task Manager, ver. 1.6.0 RC1 build 1.6.0.1
Copyright (c) 2008-2010 y-soft. All rights reserved
http://y-soft.org
ANALYZER: auCDtect: CD records authenticity detector, version 0.8.2
Copyright (c) 2004 Oleg Berngardt. All rights reserved.
Copyright (c) 2004 Alexander Djourik. All rights reserved.
FILE: 13 - La Chanson Silencieuse.flac
Size: 1209772 Hash: 5FA28AC30363766B5D33F2F29A43A6F3 Accuracy: -m0
Conclusion: CDDA 100%
Signature: B7D851664EB5232CA108707C6558469C8AD43770
FILE: 12 - Volunteered Slavery.flac
Size: 21521520 Hash: ECA5480E7A9D676FA29078A04A571475 Accuracy: -m0
Conclusion: CDDA 100%
Signature: 1FE1E6A5BAACA7B7A6A822AB56191B362EDB8A7D
FILE: 11 - Law And Order.flac
Size: 74900393 Hash: 769D62DFDB2C5CE09F978996370AD178 Accuracy: -m0
Conclusion: CDDA 100%
Signature: F3A9A372061769A8EF70C342A1C5E8146E25A858
FILE: 10 - Thisness Now.flac
Size: 5271847 Hash: DEC922D5E778B1625AFAABB1D5C938F1 Accuracy: -m0
Conclusion: CDDA 100%
Signature: 5186AB42C176724EF0596AC73DD3B5ECF7868E17
FILE: 09 - Things Ain't What They Was.flac
Size: 5102399 Hash: 588901C4A32B63B03B322AF26421FFEA Accuracy: -m0
Conclusion: CDDA 99%
Signature: 6F9CB8E0198476A6B20B06577C65D02260FAC630
FILE: 08 - Le Chien (Feat. Nathalie Richard).flac
Size: 61643202 Hash: 1969E26051F94929BA245CA0D56FDF87 Accuracy: -m0
Conclusion: CDDA 100%
Signature: 540628A864566C0AACA24EFC6083FCD8B123269B
FILE: 07 - Cued Indifference.flac
Size: 8546604 Hash: 255BEC9354E6209B10C95858D29D7E9B Accuracy: -m0
Conclusion: CDDA 100%
Signature: 455EC29187784633691B6347C4636D601B327932
FILE: 06 - Sorry Angel (Feat. Nathalie Richard).flac
Size: 29380103 Hash: 308E8A8F51299879290B48B7A62A9F13 Accuracy: -m0
Conclusion: CDDA 100%
Signature: B2BCF7F9093DFB57A6D0549479B3EA4379574CF8
FILE: 05 - Everything Starts Right Now.flac
Size: 73876604 Hash: 0DE75A6996803E88690E97BED9A6A71D Accuracy: -m0
Conclusion: CDDA 100%
Signature: 5DD8DDC097E9D7E1DC0A1B5F5B7FCF272B5630F1
FILE: 04 - It Ain't Hard For You.flac
Size: 19834637 Hash: B3FD1FD04E328D60825E285A4853A04E Accuracy: -m0
Conclusion: CDDA 100%
Signature: F86EA939712B5905E4BE4F4CFD6E31FBFF271661
FILE: 03 - Compared to What.flac
Size: 87165421 Hash: 1EE3C92116C76A34FFB94784FD2ED5BA Accuracy: -m0
Conclusion: CDDA 100%
Signature: 1A012EA2DA609A417DD4466ACA4F409DCEAB352E
FILE: 02 - Move.flac
Size: 54239709 Hash: 550ED9F4F63454501F264DBF99773D35 Accuracy: -m0
Conclusion: CDDA 99%
Signature: 5E9306A9498C1D0CFB8B5619C226B027EEEE4FD6
FILE: 01 - Thisness.flac
Size: 2098460 Hash: 498CE6BAFF0E4928A5E0F4BC8518CF76 Accuracy: -m0
Conclusion: CDDA 100%
Signature: B9B911DBC9C70F31207373A30E2F1E7A94A42077
 
Ознакомление
 
Доп. информация
Релиз полностью готов к воспроизведению в аудиоплеере (я ориентировался на foobar2000)При скачивании, если необходимо, переименуйте папку, в которой будет находиться альбомБольшая просьба к скачавшим поддерживать раздачу! Помогайте другим, ведь вам тоже может понадобиться помощь!Не забываем говорить "Спасибо"!Комментарии приветствуются!


По всем вопросам пишите личное сообщение пользователю M0p94ok.
04:01
225
Нет комментариев. Ваш будет первым!