Вы используете незарегистрированную версию компонента "Вкладки"!

Поиск

(Free Jazz) [CD] Ivo Perelman (Louis Sclavis, Paul Rogers, Ramon Lopez, Christine Wodrascka) - The Ventriloquist - 2002, FLAC (tracks+.cue), lossless

(Free Jazz) [CD] Ivo Perelman (Louis Sclavis, Paul Rogers, Ramon Lopez, Christine Wodrascka) - The Ventriloquist - 2002, FLAC (tracks+.cue), lossless
Треклист:
Ivo Perelman / The Ventriloquist
Жанр: Free Jazz
Носитель: CD
Страна-производитель диска (релиза): UK
Год издания: 2002
Издатель (лейбл): Leo Records
Номер по каталогу: CD LR 345
Аудиокодек: FLAC (*.flac)
Тип рипа: tracks+.cue
Битрейт аудио: lossless
Продолжительность: 55:15
Источник (релизер): CD
Наличие сканов в содержимом раздачи: нет
Треклист:
1. Iambic Search 13:55
2. Meliphobia 13:30
3. 500 6:53
4. Fish Brothers 4:40
5. Place Des Vosges 8:13
6. The Ventriloquist 7:49
 
Лог создания рипа
Exact Audio Copy V1.0 beta 3 from 29. August 2011
EAC extraction logfile from 28. April 2015, 16:12
Ivo Perelman / The Ventriloquist
Used drive : ASUS DRW-24F1ST a Adapter: 0 ID: 0
Read mode : Secure
Utilize accurate stream : Yes
Defeat audio cache : Yes
Make use of C2 pointers : No
Read offset correction : 6
Overread into Lead-In and Lead-Out : No
Fill up missing offset samples with silence : Yes
Delete leading and trailing silent blocks : No
Null samples used in CRC calculations : Yes
Used interface : Native Win32 interface for Win NT & 2000
Gap handling : Appended to previous track
Used output format : User Defined Encoder
Selected bitrate : 320 kBit/s
Quality : High
Add ID3 tag : No
Command line compressor : D:\Programs\Exact Audio Copy\Flac\flac.exe
Additional command line options : -V -8 -T "Genre=%genre%" -T "Artist=%artist%" -T "Title=%title%" -T "Album=%albumtitle%" -T "Date=%year%" -T "Tracknumber=%tracknr%" -T "Comment=%comment%" %source%
TOC of the extracted CD
Track | Start | Length | Start sector | End sector
---------------------------------------------------------
1 | 0:00.00 | 13:57.60 | 0 | 62834
2 | 13:57.60 | 13:32.52 | 62835 | 123786
3 | 27:30.37 | 6:55.28 | 123787 | 154939
4 | 34:25.65 | 4:43.37 | 154940 | 176201
5 | 39:09.27 | 8:16.62 | 176202 | 213463
6 | 47:26.14 | 7:49.49 | 213464 | 248687
Track 1
Filename D:\EAC\01 Lambic Search.wav
Pre-gap length 0:00:02.00
Peak level 83.6 %
Extraction speed 5.7 X
Track quality 100.0 %
Test CRC EB8BE2D2
Copy CRC EB8BE2D2
Copy OK
Track 2
Filename D:\EAC\02 Meliphobia.wav
Pre-gap length 0:00:02.07
Peak level 83.6 %
Extraction speed 7.0 X
Track quality 99.9 %
Test CRC 9A811F6D
Copy CRC 9A811F6D
Copy OK
Track 3
Filename D:\EAC\03 500.wav
Pre-gap length 0:00:02.23
Peak level 83.6 %
Extraction speed 7.9 X
Track quality 100.0 %
Test CRC 2FAFB48B
Copy CRC 2FAFB48B
Copy OK
Track 4
Filename D:\EAC\04 Fish Brothers.wav
Pre-gap length 0:00:02.06
Peak level 83.6 %
Extraction speed 7.1 X
Track quality 99.9 %
Test CRC 0377E73B
Copy CRC 0377E73B
Copy OK
Track 5
Filename D:\EAC\05 Place Des Vosges.wav
Pre-gap length 0:00:02.45
Peak level 99.4 %
Extraction speed 8.9 X
Track quality 100.0 %
Test CRC B361C327
Copy CRC B361C327
Copy OK
Track 6
Filename D:\EAC\06 The Ventriloquist.wav
Pre-gap length 0:00:02.63
Peak level 99.4 %
Extraction speed 9.4 X
Track quality 100.0 %
Test CRC 4337BCD4
Copy CRC 4337BCD4
Copy OK
No errors occurred
End of status report
==== Log checksum FF809AECA2E41ACAD4F49CE12431558E927E71CFA1300AD69069AEC303511BF1 ====
 
Содержание индексной карты (.CUE)
REM GENRE Jazz
REM DATE 2002
REM DISCID 540CF306
REM COMMENT "ExactAudioCopy v1.0b3"
PERFORMER "Ivo Perelman"
TITLE "The Ventriloquist"
FILE "01 Lambic Search.wav" WAVE
TRACK 01 AUDIO
TITLE "Lambic Search"
PERFORMER "Ivo Perelman"
FLAGS DCP
INDEX 01 00:00:00
TRACK 02 AUDIO
TITLE "Meliphobia"
PERFORMER "Ivo Perelman"
FLAGS DCP
INDEX 00 13:55:53
FILE "02 Meliphobia.wav" WAVE
INDEX 01 00:00:00
TRACK 03 AUDIO
TITLE "500"
PERFORMER "Ivo Perelman"
FLAGS DCP
INDEX 00 13:30:29
FILE "03 500.wav" WAVE
INDEX 01 00:00:00
TRACK 04 AUDIO
TITLE "Fish Brothers"
PERFORMER "Ivo Perelman"
FLAGS DCP
INDEX 00 06:53:22
FILE "04 Fish Brothers.wav" WAVE
INDEX 01 00:00:00
TRACK 05 AUDIO
TITLE "Place Des Vosges"
PERFORMER "Ivo Perelman"
FLAGS DCP
INDEX 00 04:40:67
FILE "05 Place Des Vosges.wav" WAVE
INDEX 01 00:00:00
TRACK 06 AUDIO
TITLE "The Ventriloquist"
PERFORMER "Ivo Perelman"
FLAGS DCP
INDEX 00 08:13:74
FILE "06 The Ventriloquist.wav" WAVE
INDEX 01 00:00:00
Доп. информация: Recorded 12 & 13 June 2001, at Guimick, Yerres, Paris.
 
Об альбоме (сборнике)
At times, these five musicians’ collective aura might ring something like heavyweight boxers going toe-to-toe. However, the forceful implications are perhaps a bit more complementary! Saxophonist Ivo Perelman and bass clarinetist Louis Sclavis lead the charge by engaging in a series of jabs, flurries and counter-attacks. Yet the key ingredients reside within mutual understanding, cohesiveness, clarity of ideas and much more. In essence, this release features an all-star lineup, plus the lesser-known but thoroughly imaginative pianist Christina Wodrascka.
It’s all about free jazz, with noticeable elements of structure and linear frameworks amid moments of Albert Ayler-type intensity, witnessed on “Meliphobia,” for example. On “Place des Vosgas,” the soloists engage in cat-and-mouse dialogue,amid gobs of synergistic adventures and circular motifs. Through it all, Perelman and Sclavis get the job done in vigorous fashion. The woodwind specialists’ complementing styles fuse—or perhaps channel—the energies of the rhythm section’s whirling flows and meticulously shaped designs. Easily one of Perelman’s finest outings to date! Irrefutably recommended...
 
Состав
Bass – Paul Rogers
Bass Clarinet – Louis Sclavis
Drums – Ramon Lopez
Music By – Ivo Perelman
Painting [Front Painting] – Ivo Perelman
Piano – Christine Wodrascka
Producer – Ivo Perelman, Leo Feigin
Tenor Saxophone – Ivo Perelman
По всем вопросам пишите личное сообщение пользователю M0p94ok.
13:08
133
Нет комментариев. Ваш будет первым!