Поиск

(Free Jazz, Avant-Garde Jazz) [CD] East Asia Orchestra (Yoshiaki Fujikawa, Tetsuji Yoshida, Keizo Inoue, Kazutoki Umezu etc.) - Jazzbuhne Berlin '84 Vol. 14 - 1991, FLAC (tracks+.cue), lossless

(Free Jazz, Avant-Garde Jazz) [CD] East Asia Orchestra (Yoshiaki Fujikawa, Tetsuji Yoshida, Keizo Inoue, Kazutoki Umezu etc.) - Jazzbuhne Berlin '84 Vol. 14 - 1991, FLAC (tracks+.cue), lossless
East Asia Orchestra / Jazzbühne Berlin '84 Vol. 14
Жанр: Free Jazz, Avant-Garde Jazz
Носитель: CD
Страна-производитель диска (релиза): Germany
Год издания: 1991
Издатель (лейбл): ‎Repertoire Records
Номер по каталогу: REP 4914-WZ
Страна исполнителя (группы): Japan
Аудиокодек: FLAC (*.flac)
Тип рипа: tracks+.cue
Битрейт аудио: lossless
Продолжительность: 1:12:32
Источник (релизер): gssmg7
Наличие сканов в содержимом раздачи: да
Треклист:
1. Bold And Able (Y. Fujikawa) - 15:05
2. Lardiga (Y. Fujikawa) - 13:15
3. Dive Gift And Yellow God (Y. Fujikawa) - 17:40
4. Only For Life (Y. Fujikawa) - 10:35
5. Never Say Die (Y. Fujikawa) - 1:50
6. Tribal Chief (Kziki Midorikawa) - 11:05
 
Лог создания рипа
Exact Audio Copy V1.0 beta 2 from 29. April 2011
EAC extraction logfile from 19. April 2015, 15:20
East Asia Orchestra / Jazzbuhne Berlin '84
Used drive : Optiarc DVD RW AD-5280S Adapter: 1 ID: 1
Read mode : Secure
Utilize accurate stream : Yes
Defeat audio cache : Yes
Make use of C2 pointers : No
Read offset correction : 48
Overread into Lead-In and Lead-Out : No
Fill up missing offset samples with silence : Yes
Delete leading and trailing silent blocks : No
Null samples used in CRC calculations : Yes
Used interface : Installed external ASPI interface
Gap handling : Appended to previous track
Used output format : User Defined Encoder
Selected bitrate : 128 kBit/s
Quality : High
Add ID3 tag : No
Command line compressor : C:\Program Files\FLAC\flac.exe
Additional command line options : -V -8 -T "Genre=%genre%" -T "Artist=%artist%" -T "Title=%title%" -T "Album=%albumtitle%" -T "Date=%year%" -T "Tracknumber=%tracknr%" -T "Comment=%comment%" %source%
TOC of the extracted CD
Track | Start | Length | Start sector | End sector
---------------------------------------------------------
1 | 0:00.00 | 15:37.07 | 0 | 70281
2 | 15:37.07 | 13:33.73 | 70282 | 131329
3 | 29:11.05 | 18:21.17 | 131330 | 213921
4 | 47:32.22 | 10:32.53 | 213922 | 261374
5 | 58:05.00 | 2:52.45 | 261375 | 274319
6 | 60:57.45 | 11:34.32 | 274320 | 326401
Track 1
Filename C:\East Asia Orchestra (1991) - Jazzbuhne Berlin '84\01 - Bold And Able.wav
Pre-gap length 0:00:02.00
Peak level 98.8 %
Extraction speed 3.3 X
Track quality 100.0 %
Test CRC 67DAECC9
Copy CRC 67DAECC9
Accurately ripped (confidence 1) [5711E493] (AR v1)
Copy OK
Track 2
Filename C:\East Asia Orchestra (1991) - Jazzbuhne Berlin '84\02 - Lardiga.wav
Peak level 99.7 %
Extraction speed 4.1 X
Track quality 100.0 %
Test CRC 05F37B33
Copy CRC 05F37B33
Accurately ripped (confidence 1) [9B224293] (AR v1)
Copy OK
Track 3
Filename C:\East Asia Orchestra (1991) - Jazzbuhne Berlin '84\03 - Divine Gift And Yellow God.wav
Peak level 98.6 %
Extraction speed 4.8 X
Track quality 99.9 %
Test CRC E9261718
Copy CRC E9261718
Accurately ripped (confidence 1) [68DB953E] (AR v1)
Copy OK
Track 4
Filename C:\East Asia Orchestra (1991) - Jazzbuhne Berlin '84\04 - Only For Life.wav
Peak level 95.1 %
Extraction speed 5.4 X
Track quality 100.0 %
Test CRC 24F39D4F
Copy CRC 24F39D4F
Accurately ripped (confidence 1) [474B9E59] (AR v1)
Copy OK
Track 5
Filename C:\East Asia Orchestra (1991) - Jazzbuhne Berlin '84\05 - Never Say Die.wav
Peak level 98.5 %
Extraction speed 4.9 X
Track quality 100.0 %
Test CRC 18566FA0
Copy CRC 18566FA0
Accurately ripped (confidence 1) [7970E634] (AR v1)
Copy OK
Track 6
Filename C:\East Asia Orchestra (1991) - Jazzbuhne Berlin '84\06 - Tribal Chief.wav
Peak level 91.1 %
Extraction speed 5.9 X
Track quality 100.0 %
Test CRC 8F11232A
Copy CRC 8F11232A
Accurately ripped (confidence 1) [8C11FCAA] (AR v1)
Copy OK
All tracks accurately ripped
No errors occurred
End of status report
==== Log checksum AF8DDBC391BFDBC62E718F5742EF144446D7FF0E5DAEB9FC50C7DA48A8475C28 ====
 
Содержание индексной карты (.CUE)
REM GENRE Jazz
REM DATE 1991
REM DISCID 67110006
REM COMMENT "ExactAudioCopy v1.0b2"
PERFORMER "East Asia Orchestra"
TITLE "Jazzbuhne Berlin '84"
FILE "01 - Bold And Able.wav" WAVE
TRACK 01 AUDIO
TITLE "Bold And Able"
PERFORMER "East Asia Orchestra"
INDEX 01 00:00:00
FILE "02 - Lardiga.wav" WAVE
TRACK 02 AUDIO
TITLE "Lardiga"
PERFORMER "East Asia Orchestra"
INDEX 01 00:00:00
FILE "03 - Divine Gift And Yellow God.wav" WAVE
TRACK 03 AUDIO
TITLE "Divine Gift And Yellow God"
PERFORMER "East Asia Orchestra"
INDEX 01 00:00:00
FILE "04 - Only For Life.wav" WAVE
TRACK 04 AUDIO
TITLE "Only For Life"
PERFORMER "East Asia Orchestra"
INDEX 01 00:00:00
FILE "05 - Never Say Die.wav" WAVE
TRACK 05 AUDIO
TITLE "Never Say Die"
PERFORMER "East Asia Orchestra"
INDEX 01 00:00:00
FILE "06 - Tribal Chief.wav" WAVE
TRACK 06 AUDIO
TITLE "Tribal Chief"
PERFORMER "East Asia Orchestra"
INDEX 01 00:00:00
 
Доп. информация
Recorded live at Volksbühne East Berlin on June 17, 1984.
 
Состав
Yoshiaki Fujikawa - alto saxophone, leader
Ichijuu Komija - trumpet
Tetsuji Yoshida - trumpet
Haruki Satoh - trombone
Hiroshi Itaya - trombone
Keizo Inoue - saxes
Hioraki Katayama - saxes
Kazutoki Umezu - saxes
Junji Hirose - saxes
Keiki Midowikawa - bass
Tatsuji Yokojama - drums
Sabu Toyozumi - drums
13:07
262
Нет комментариев. Ваш будет первым!