Вы используете незарегистрированную версию компонента "Вкладки"!

Поиск

(Free Jazz) [CD] The Ivo Perelman Trio (Dominic Duval, Jay Rosen) - Seeds, Vision And Counterpoint - 1998, FLAC (tracks+.cue), lossless

(Free Jazz) [CD] The Ivo Perelman Trio (Dominic Duval, Jay Rosen) - Seeds, Vision And Counterpoint - 1998, FLAC (tracks+.cue), lossless
Треклист:
The Ivo Perelman Trio / Seeds, Vision And Counterpoint
Жанр: Free Jazz
Носитель: CD
Страна-производитель диска (релиза): UK
Год издания: 1998
Издатель (лейбл): Leo Records
Номер по каталогу: CD LR 252
Аудиокодек: FLAC (*.flac)
Тип рипа: tracks+.cue
Битрейт аудио: lossless
Продолжительность: 53:36
Источник (релизер): cd
Наличие сканов в содержимом раздачи: нет
Треклист:
1. Zero Expectancy 6:12
2. Seeds, Vision And Counterpoint 20:53
3. Cantilena 26:28
 
Лог создания рипа
Exact Audio Copy V1.0 beta 3 from 29. August 2011
EAC extraction logfile from 28. April 2015, 12:05
The Ivo Perelman Trio / Seeds, Vision And Counterpoint
Used drive : ASUS DRW-24F1ST a Adapter: 0 ID: 0
Read mode : Secure
Utilize accurate stream : Yes
Defeat audio cache : Yes
Make use of C2 pointers : No
Read offset correction : 6
Overread into Lead-In and Lead-Out : No
Fill up missing offset samples with silence : Yes
Delete leading and trailing silent blocks : No
Null samples used in CRC calculations : Yes
Used interface : Native Win32 interface for Win NT & 2000
Gap handling : Appended to previous track
Used output format : User Defined Encoder
Selected bitrate : 320 kBit/s
Quality : High
Add ID3 tag : No
Command line compressor : D:\Programs\Exact Audio Copy\Flac\flac.exe
Additional command line options : -V -8 -T "Genre=%genre%" -T "Artist=%artist%" -T "Title=%title%" -T "Album=%albumtitle%" -T "Date=%year%" -T "Tracknumber=%tracknr%" -T "Comment=%comment%" %source%
TOC of the extracted CD
Track | Start | Length | Start sector | End sector
---------------------------------------------------------
1 | 0:00.00 | 6:12.55 | 0 | 27954
2 | 6:12.55 | 20:55.45 | 27955 | 122124
3 | 27:08.25 | 26:28.20 | 122125 | 241244
Track 1
Filename D:\EAC\01 Zero Expectancy.wav
Pre-gap length 0:00:02.00
Peak level 94.4 %
Extraction speed 1.8 X
Track quality 100.0 %
Test CRC 790C0856
Copy CRC 790C0856
Copy OK
Track 2
Filename D:\EAC\02 Seeds, Vision And Counterpoint.wav
Peak level 93.7 %
Extraction speed 2.5 X
Track quality 99.9 %
Test CRC 033214D0
Copy CRC 033214D0
Copy OK
Track 3
Filename D:\EAC\03 Cantilena.wav
Peak level 91.4 %
Extraction speed 3.4 X
Track quality 99.9 %
Test CRC DE937A29
Copy CRC DE937A29
Copy OK
No errors occurred
End of status report
==== Log checksum 8652DD6DE7454CADBAA9DA4CD408B8D8074D1598BC7CB47FB387910A6C41F3E8 ====
 
Содержание индексной карты (.CUE)
REM GENRE Jazz
REM DATE 1998
REM DISCID 1A0C9003
REM COMMENT "ExactAudioCopy v1.0b3"
CATALOG 0000000000000
PERFORMER "The Ivo Perelman Trio"
TITLE "Seeds, Vision And Counterpoint"
FILE "01 Zero Expectancy.wav" WAVE
TRACK 01 AUDIO
TITLE "Zero Expectancy"
PERFORMER "The Ivo Perelman Trio"
INDEX 01 00:00:00
FILE "02 Seeds, Vision And Counterpoint.wav" WAVE
TRACK 02 AUDIO
TITLE "Seeds, Vision And Counterpoint"
PERFORMER "The Ivo Perelman Trio"
INDEX 01 00:00:00
FILE "03 Cantilena.wav" WAVE
TRACK 03 AUDIO
TITLE "Cantilena"
PERFORMER "The Ivo Perelman Trio"
INDEX 01 00:00:00
Доп. информация: Recorded live to 2-track at Rocking Reel, East Northport, NY on September 24, 1998
 
Об альбоме (сборнике)
Ivo Perelman was far from predictable in the 1990s, when he recorded everything from the most atonal of free jazz to some fairly musical "inside/outside" offerings. Not among his more accessible releases, Seeds, Visions and Counterpoint is a free-jazz gem that favors complete atonality. You won't find a solid melody to grab a hold of on the 20-minute title song, the 26-minute "Cantilena" or the six-minute "Zero Expectancy" -- rather, the focus of Perelman and sidemen Dominic Duval (bass) and Jay Rosen (drums) is fiery, stream-of-consciousness improvising and dizzying, chaotic landscapes of sound. Free jazz lovers will find a lot to admire about this jolting, consistently dissonant CD, though music this extreme obviously isn't for everyone. Short of Charles Gayle, free jazz didn't get any more scorching in the 1990s than Seeds, Visions and Counterpoint.
 
Состав
Bass, Bass [Prepared Bass], Electronics [Live Electronics] – Dominic Duval
Drums – Jay Rosen
Music By – Ivo Perelman
Tenor Saxophone [Tenor Sax] – Ivo Perelman
По всем вопросам пишите личное сообщение пользователю M0p94ok.
13:09
143
Нет комментариев. Ваш будет первым!