Вы используете незарегистрированную версию компонента "Вкладки"!

Поиск

(free jazz) [cd] Iro Haarla & Ulf Krokfors - Heart of a Bird (2003), FLAC (tracks+.cue), lossless

(free jazz) [cd] Iro Haarla & Ulf Krokfors - Heart of a Bird (2003), FLAC (tracks+.cue), lossless
Треклист:
(free jazz) [cd] Iro Haarla & Ulf Krokfors - Heart of a Bird (2003), FLAC (tracks+.cue), lossless


Iro Haarla & Ulf Krokfors - Heart of a Bird (2003)

Жанр: free jazz
Год выпуска: 2003
Издатель (лейбл):TUM Records/TUM CD 004
Формат: FLAC (tracks+.cue)
Битрейт аудио: lossless
Продолжительность 48`48
Источник: what.cd

tracks

1 Heart Of A Bird 4:38
2 Springlike Grove 2:28
3 Spring Flower 4:24
4 Farewell To Valomäki 3:52
5 Big, Big Problems 5:40
6 Lullaby To The Unborn 3:49
7 Gates Of Hades 2:38
8 Forest Song 3:29
9 Longing 3:26
10 Elephantine Memories 3:21
11 Solveig's Song 4:20
12 Light In The Sadness 5:50


 
.log
Exact Audio Copy V1.0 beta 2 from 29. April 2011
EAC extraction logfile from 19. December 2012, 10:23
Iro Haarla & Ulf Krokfors / Heart of a Bird
Used drive : TSSTcorpCDDVDW SH-S223L Adapter: 1 ID: 1
Read mode : Secure
Utilize accurate stream : Yes
Defeat audio cache : Yes
Make use of C2 pointers : No
Read offset correction : 6
Overread into Lead-In and Lead-Out : No
Fill up missing offset samples with silence : Yes
Delete leading and trailing silent blocks : No
Null samples used in CRC calculations : Yes
Used interface : Native Win32 interface for Win NT & 2000
Gap handling : Appended to previous track
Used output format : User Defined Encoder
Selected bitrate : 896 kBit/s
Quality : High
Add ID3 tag : No
Command line compressor : C:\Program Files (x86)\Exact Audio Copy\Flac\flac.exe
Additional command line options : -8 -V -T "ARTIST=%artist%" -T "TITLE=%title%" -T "ALBUM=%albumtitle%" -T "DATE=%year%" -T "TRACKNUMBER=%tracknr%" -T "GENRE=%genre%" -T "PERFORMER=%albuminterpret%" -T "COMPOSER=%composer%" %haslyrics%--tag-from-file=LYRIC
TOC of the extracted CD
Track | Start | Length | Start sector | End sector
---------------------------------------------------------
1 | 0:00.00 | 4:42.05 | 0 | 21154
2 | 4:42.05 | 2:32.37 | 21155 | 32591
3 | 7:14.42 | 4:28.10 | 32592 | 52701
4 | 11:42.52 | 3:57.00 | 52702 | 70476
5 | 15:39.52 | 5:44.73 | 70477 | 96349
6 | 21:24.50 | 3:54.40 | 96350 | 113939
7 | 25:19.15 | 2:42.35 | 113940 | 126124
8 | 28:01.50 | 3:34.35 | 126125 | 142209
9 | 31:36.10 | 3:30.02 | 142210 | 157961
10 | 35:06.12 | 3:25.53 | 157962 | 173389
11 | 38:31.65 | 4:24.17 | 173390 | 193206
12 | 42:56.07 | 5:51.58 | 193207 | 219589
Track 1
Filename M:\Music\What 6\Iro Haarla & Ulf Krokfors - Heart of a Bird (2003) [FLAC]\01 - Heart of a Bird.wav
Pre-gap length 0:00:02.00
Peak level 92.3 %
Extraction speed 2.6 X
Track quality 100.0 %
Test CRC 8919C99A
Copy CRC 8919C99A
Track not present in AccurateRip database
Copy OK
Track 2
Filename M:\Music\What 6\Iro Haarla & Ulf Krokfors - Heart of a Bird (2003) [FLAC]\02 - Springlike Grove.wav
Pre-gap length 0:00:04.04
Peak level 92.5 %
Extraction speed 2.6 X
Track quality 100.0 %
Test CRC C5F15227
Copy CRC C5F15227
Track not present in AccurateRip database
Copy OK
Track 3
Filename M:\Music\What 6\Iro Haarla & Ulf Krokfors - Heart of a Bird (2003) [FLAC]\03 - Spring Flower.wav
Pre-gap length 0:00:04.02
Peak level 93.5 %
Extraction speed 3.1 X
Track quality 100.0 %
Test CRC 750FB8E5
Copy CRC 750FB8E5
Track not present in AccurateRip database
Copy OK
Track 4
Filename M:\Music\What 6\Iro Haarla & Ulf Krokfors - Heart of a Bird (2003) [FLAC]\04 - Farewell to Valomäki.wav
Pre-gap length 0:00:03.84
Peak level 92.6 %
Extraction speed 3.3 X
Track quality 100.0 %
Test CRC AD5D4E45
Copy CRC AD5D4E45
Track not present in AccurateRip database
Copy OK
Track 5
Filename M:\Music\What 6\Iro Haarla & Ulf Krokfors - Heart of a Bird (2003) [FLAC]\05 - Big, Big Problems.wav
Pre-gap length 0:00:04.06
Peak level 85.9 %
Extraction speed 3.1 X
Track quality 99.9 %
Test CRC 282EBE3D
Copy CRC 282EBE3D
Track not present in AccurateRip database
Copy OK
Track 6
Filename M:\Music\What 6\Iro Haarla & Ulf Krokfors - Heart of a Bird (2003) [FLAC]\06 - Lullaby to the Unborn.wav
Pre-gap length 0:00:04.13
Peak level 91.4 %
Extraction speed 3.8 X
Track quality 100.0 %
Test CRC 8CA7688D
Copy CRC 8CA7688D
Track not present in AccurateRip database
Copy OK
Track 7
Filename M:\Music\What 6\Iro Haarla & Ulf Krokfors - Heart of a Bird (2003) [FLAC]\07 - Gates of Hades.wav
Pre-gap length 0:00:04.60
Peak level 77.4 %
Extraction speed 3.7 X
Track quality 100.0 %
Test CRC F167F606
Copy CRC F167F606
Track not present in AccurateRip database
Copy OK
Track 8
Filename M:\Music\What 6\Iro Haarla & Ulf Krokfors - Heart of a Bird (2003) [FLAC]\08 - Forest Song.wav
Pre-gap length 0:00:04.04
Peak level 92.2 %
Extraction speed 3.1 X
Track quality 99.9 %
Test CRC 9E5BCDEF
Copy CRC 9E5BCDEF
Track not present in AccurateRip database
Copy OK
Track 9
Filename M:\Music\What 6\Iro Haarla & Ulf Krokfors - Heart of a Bird (2003) [FLAC]\09 - Longing.wav
Pre-gap length 0:00:04.06
Peak level 88.3 %
Extraction speed 4.2 X
Track quality 100.0 %
Test CRC 1B1D97DC
Copy CRC 1B1D97DC
Track not present in AccurateRip database
Copy OK
Track 10
Filename M:\Music\What 6\Iro Haarla & Ulf Krokfors - Heart of a Bird (2003) [FLAC]\10 - Elephantine Memories.wav
Pre-gap length 0:00:04.06
Peak level 92.7 %
Extraction speed 4.3 X
Track quality 100.0 %
Test CRC 6A714F3D
Copy CRC 6A714F3D
Track not present in AccurateRip database
Copy OK
Track 11
Filename M:\Music\What 6\Iro Haarla & Ulf Krokfors - Heart of a Bird (2003) [FLAC]\11 - Solveig's Song.wav
Pre-gap length 0:00:04.06
Peak level 92.6 %
Extraction speed 4.7 X
Track quality 100.0 %
Test CRC 62829ABE
Copy CRC 62829ABE
Track not present in AccurateRip database
Copy OK
Track 12
Filename M:\Music\What 6\Iro Haarla & Ulf Krokfors - Heart of a Bird (2003) [FLAC]\12 - Light in the Sadness.wav
Pre-gap length 0:00:04.36
Peak level 93.8 %
Extraction speed 5.1 X
Track quality 100.0 %
Test CRC D230D32D
Copy CRC D230D32D
Track not present in AccurateRip database
Copy OK
None of the tracks are present in the AccurateRip database
No errors occurred
End of status report
==== Log checksum 3B12C60406ABA8FE674EB6311650AA3A23AD5EB34C8E4A42383A85D3078C87DF ====
 
.cue
REM GENRE Jazz
REM DATE 2003
REM DISCID A60B6F0C
REM COMMENT "ExactAudioCopy v1.0b2"
PERFORMER "Iro Haarla & Ulf Krokfors"
TITLE "Heart of a Bird"
FILE "01 - Heart of a Bird.wav" WAVE
TRACK 01 AUDIO
TITLE "Heart of a Bird"
PERFORMER "Iro Haarla & Ulf Krokfors"
ISRC FITU90300022
INDEX 01 00:00:00
TRACK 02 AUDIO
TITLE "Springlike Grove"
PERFORMER "Iro Haarla & Ulf Krokfors"
ISRC FITU90300023
INDEX 00 04:38:02
FILE "02 - Springlike Grove.wav" WAVE
INDEX 01 00:00:00
TRACK 03 AUDIO
TITLE "Spring Flower"
PERFORMER "Iro Haarla & Ulf Krokfors"
ISRC FITU90300024
INDEX 00 02:28:35
FILE "03 - Spring Flower.wav" WAVE
INDEX 01 00:00:00
TRACK 04 AUDIO
TITLE "Farewell to Valomдki"
PERFORMER "Iro Haarla & Ulf Krokfors"
ISRC FITU90300025
INDEX 00 04:24:22
FILE "04 - Farewell to Valomдki.wav" WAVE
INDEX 01 00:00:00
TRACK 05 AUDIO
TITLE "Big, Big Problems"
PERFORMER "Iro Haarla & Ulf Krokfors"
ISRC FITU90300026
INDEX 00 03:52:70
FILE "05 - Big, Big Problems.wav" WAVE
INDEX 01 00:00:00
TRACK 06 AUDIO
TITLE "Lullaby to the Unborn"
PERFORMER "Iro Haarla & Ulf Krokfors"
ISRC FITU90300027
INDEX 00 05:40:63
FILE "06 - Lullaby to the Unborn.wav" WAVE
INDEX 01 00:00:00
TRACK 07 AUDIO
TITLE "Gates of Hades"
PERFORMER "Iro Haarla & Ulf Krokfors"
ISRC FITU90300028
INDEX 00 03:49:70
FILE "07 - Gates of Hades.wav" WAVE
INDEX 01 00:00:00
TRACK 08 AUDIO
TITLE "Forest Song"
PERFORMER "Iro Haarla & Ulf Krokfors"
ISRC FITU90300029
INDEX 00 02:38:32
FILE "08 - Forest Song.wav" WAVE
INDEX 01 00:00:00
TRACK 09 AUDIO
TITLE "Longing"
PERFORMER "Iro Haarla & Ulf Krokfors"
ISRC FITU90300030
INDEX 00 03:30:30
FILE "09 - Longing.wav" WAVE
INDEX 01 00:00:00
TRACK 10 AUDIO
TITLE "Elephantine Memories"
PERFORMER "Iro Haarla & Ulf Krokfors"
ISRC FITU90300031
INDEX 00 03:25:72
FILE "10 - Elephantine Memories.wav" WAVE
INDEX 01 00:00:00
TRACK 11 AUDIO
TITLE "Solveig's Song"
PERFORMER "Iro Haarla & Ulf Krokfors"
ISRC FITU90300032
INDEX 00 03:21:48
FILE "11 - Solveig's Song.wav" WAVE
INDEX 01 00:00:00
TRACK 12 AUDIO
TITLE "Light in the Sadness"
PERFORMER "Iro Haarla & Ulf Krokfors"
ISRC FITU90300033
INDEX 00 04:19:65
FILE "12 - Light in the Sadness.wav" WAVE
INDEX 01 00:00:00

http://www.discogs.com/Iro-Haarla-Ulf-Krokfors-Heart-Of-A-Bird/release/2861298
другие релизы
По всем вопросам пишите личное сообщение пользователю M0p94ok.
13:17
151
Нет комментариев. Ваш будет первым!