Вы используете незарегистрированную версию компонента "Вкладки"!

Поиск

(Avant-Garde Jazz, Free Improvisation) [CD] 3D: Dabrowski Davis Drury - Vermilion Tree - 2014, FLAC (tracks+.cue), lossless

(Avant-Garde Jazz, Free Improvisation) [CD] 3D: Dabrowski Davis Drury - Vermilion Tree - 2014, FLAC (tracks+.cue), lossless
Треклист:
3D: Dąbrowski Davis Drury / Vermilion Tree
Жанр: Avant-Garde Jazz, Free Improvisation
Носитель: CD
Страна-производитель диска (релиза): Poland
Год издания: 2014
Издатель (лейбл): For Tune
Номер по каталогу: 0030 021
Аудиокодек: FLAC (*.flac)
Тип рипа: tracks+.cue
Битрейт аудио: lossless
Продолжительность: 53:53
Источник (релизер): я
Наличие сканов в содержимом раздачи: да
Треклист:
1. Fawn 2:06
2. Vermilion Tree (Tomasz Dąbrowski) 3:34
3. Dun 2:07
4. Leaden 1:20
5. Hazel 1:39
6. Modules (Andrew Drury) 10:45
7. Mauve 3:00
8. Puce (Tomasz Dąbrowski) 1:27
9. Mattock Phrasemonger (Tomasz Dąbrowski) 9:17
10. Livid 1:44
11. Taupe 1:44
12. Ruddy Rudi (Tomasz Dąbrowski) 7:45
13. Apricot, Apricot (Tomasz Dąbrowski) 4:52
14. Tawny 2:33
All tunes composed by Dąbrowski / Davis / Drury except where indicated.
Recorded February 3rd, 2012 at Peter Karl’s Studio in New York.
Tomasz Dąbrowski – Trumpet
Kris Davis – Piano
Andrew Drury – Drums
 
Лог создания рипа
Exact Audio Copy V1.0 beta 4 from 7. December 2014
EAC extraction logfile from 3. February 2015, 10:15
3D: Dąbrowski Davis Drury / Vermilion Tree
Used drive : SlimtypeeNAU508 5 Adapter: 1 ID: 1
Read mode : Secure
Utilize accurate stream : Yes
Defeat audio cache : Yes
Make use of C2 pointers : No
Read offset correction : 6
Overread into Lead-In and Lead-Out : No
Fill up missing offset samples with silence : Yes
Delete leading and trailing silent blocks : No
Null samples used in CRC calculations : Yes
Used interface : Native Win32 interface for Win NT & 2000
Gap handling : Appended to previous track
Used output format : User Defined Encoder
Selected bitrate : 896 kBit/s
Quality : High
Add ID3 tag : No
Command line compressor : C:\Program Files (x86)\Exact Audio Copy\Flac\flac.exe
Additional command line options : -8 -V -T "ARTIST=%artist%" -T "TITLE=%title%" -T "ALBUM=%albumtitle%" -T "DATE=%year%" -T "TRACKNUMBER=%tracknr%" -T "TOTALTRACKS=%numtracks%" -T "GENRE=%genre%" -T "ALBUMARTIST=%albumartist%" -T "ALBUM ARTIST=%albumartist%" -T "COMMENT=EAC Secure Mode, Test & Copy, AccurateRip, FLAC -8" %source%
TOC of the extracted CD
Track | Start | Length | Start sector | End sector
---------------------------------------------------------
1 | 0:00.00 | 2:06.00 | 0 | 9449
2 | 2:06.00 | 3:34.00 | 9450 | 25499
3 | 5:40.00 | 2:07.00 | 25500 | 35024
4 | 7:47.00 | 1:20.00 | 35025 | 41024
5 | 9:07.00 | 1:39.00 | 41025 | 48449
6 | 10:46.00 | 10:45.00 | 48450 | 96824
7 | 21:31.00 | 3:00.00 | 96825 | 110324
8 | 24:31.00 | 1:27.00 | 110325 | 116849
9 | 25:58.00 | 9:17.00 | 116850 | 158624
10 | 35:15.00 | 1:44.00 | 158625 | 166424
11 | 36:59.00 | 1:44.00 | 166425 | 174224
12 | 38:43.00 | 7:45.00 | 174225 | 209099
13 | 46:28.00 | 4:52.00 | 209100 | 230999
14 | 51:20.00 | 2:33.00 | 231000 | 242474
Track 1
Filename C:\EAC rips\01 - Fawn.wav
Pre-gap length 0:00:02.00
Peak level 90.9 %
Extraction speed 1.8 X
Track quality 100.0 %
Test CRC F4A967DB
Copy CRC F4A967DB
Track not present in AccurateRip database
Copy OK
Track 2
Filename C:\EAC rips\02 - Vermilion Tree.wav
Peak level 93.3 %
Extraction speed 2.1 X
Track quality 100.0 %
Test CRC AADFE067
Copy CRC AADFE067
Track not present in AccurateRip database
Copy OK
Track 3
Filename C:\EAC rips\03 - Dun.wav
Peak level 91.1 %
Extraction speed 2.0 X
Track quality 100.0 %
Test CRC 9652DF0F
Copy CRC 9652DF0F
Track not present in AccurateRip database
Copy OK
Track 4
Filename C:\EAC rips\04 - Leaden.wav
Peak level 75.8 %
Extraction speed 1.2 X
Track quality 99.8 %
Test CRC 0EFAC903
Copy CRC 0EFAC903
Track not present in AccurateRip database
Copy OK
Track 5
Filename C:\EAC rips\05 - Hazel.wav
Peak level 90.8 %
Extraction speed 2.1 X
Track quality 100.0 %
Test CRC 347C0952
Copy CRC 347C0952
Track not present in AccurateRip database
Copy OK
Track 6
Filename C:\EAC rips\06 - Modules.wav
Peak level 93.5 %
Extraction speed 3.0 X
Track quality 100.0 %
Test CRC 1A008155
Copy CRC 1A008155
Track not present in AccurateRip database
Copy OK
Track 7
Filename C:\EAC rips\07 - Mauve.wav
Peak level 89.2 %
Extraction speed 2.9 X
Track quality 100.0 %
Test CRC 2552D07E
Copy CRC 2552D07E
Track not present in AccurateRip database
Copy OK
Track 8
Filename C:\EAC rips\08 - Puce.wav
Peak level 51.0 %
Extraction speed 2.5 X
Track quality 100.0 %
Test CRC EF2B4D5D
Copy CRC EF2B4D5D
Track not present in AccurateRip database
Copy OK
Track 9
Filename C:\EAC rips\09 - Mattock Phrasemonger.wav
Peak level 90.9 %
Extraction speed 3.6 X
Track quality 100.0 %
Test CRC 6A63F9F7
Copy CRC 6A63F9F7
Track not present in AccurateRip database
Copy OK
Track 10
Filename C:\EAC rips\10 - Livid.wav
Peak level 90.7 %
Extraction speed 3.0 X
Track quality 100.0 %
Test CRC 72F02AC4
Copy CRC 72F02AC4
Track not present in AccurateRip database
Copy OK
Track 11
Filename C:\EAC rips\11 - Taude.wav
Peak level 72.2 %
Extraction speed 3.0 X
Track quality 100.0 %
Test CRC 923BC90E
Copy CRC 923BC90E
Track not present in AccurateRip database
Copy OK
Track 12
Filename C:\EAC rips\12 - Ruddy Rudi.wav
Peak level 94.6 %
Extraction speed 4.0 X
Track quality 100.0 %
Test CRC B131ED6A
Copy CRC B131ED6A
Track not present in AccurateRip database
Copy OK
Track 13
Filename C:\EAC rips\13 - Apricot, Apricot.wav
Peak level 91.1 %
Extraction speed 3.8 X
Track quality 100.0 %
Test CRC 9BC00E74
Copy CRC 9BC00E74
Track not present in AccurateRip database
Copy OK
Track 14
Filename C:\EAC rips\14 - Tawny.wav
Peak level 91.8 %
Extraction speed 3.7 X
Track quality 100.0 %
Test CRC 612FDDC0
Copy CRC 612FDDC0
Track not present in AccurateRip database
Copy OK
None of the tracks are present in the AccurateRip database
No errors occurred
End of status report
---- CUETools DB Plugin V2.1.4
[CTDB TOCID: h6VOG2QI4qBRn9BXWAhZiL2APNg-] found
Submit result: already submitted
Track | CTDB Status
1 | (3/4) Accurately ripped
2 | (3/4) Accurately ripped
3 | (3/4) Accurately ripped
4 | (3/4) Accurately ripped
5 | (3/4) Accurately ripped
6 | (3/4) Accurately ripped
7 | (3/4) Accurately ripped
8 | (3/4) Accurately ripped
9 | (3/4) Accurately ripped
10 | (3/4) Accurately ripped
11 | (3/4) Accurately ripped
12 | (3/4) Accurately ripped
13 | (3/4) Accurately ripped
14 | (3/4) Accurately ripped
==== Log checksum AF8842E7A196C6CFED763049409C47CA894EBCA169F8F48445FCCC27CFD9A799 ====
 
Содержание индексной карты (.CUE)
REM GENRE "For Tune 0030 021"
REM DATE 2014
REM DISCID B40CA10E
REM COMMENT "ExactAudioCopy v1.0b4"
PERFORMER "3D: Dąbrowski Davis Drury"
TITLE "Vermilion Tree"
FILE "01 - Fawn.wav" WAVE
TRACK 01 AUDIO
TITLE "Fawn"
PERFORMER "3D: Dąbrowski Davis Drury"
ISRC PLH161400202
INDEX 01 00:00:00
FILE "02 - Vermilion Tree.wav" WAVE
TRACK 02 AUDIO
TITLE "Vermilion Tree"
PERFORMER "3D: Dąbrowski Davis Drury"
ISRC PLH161400203
INDEX 01 00:00:00
FILE "03 - Dun.wav" WAVE
TRACK 03 AUDIO
TITLE "Dun"
PERFORMER "3D: Dąbrowski Davis Drury"
ISRC PLH161400204
INDEX 01 00:00:00
FILE "04 - Leaden.wav" WAVE
TRACK 04 AUDIO
TITLE "Leaden"
PERFORMER "3D: Dąbrowski Davis Drury"
ISRC PLH161400205
INDEX 01 00:00:00
FILE "05 - Hazel.wav" WAVE
TRACK 05 AUDIO
TITLE "Hazel"
PERFORMER "3D: Dąbrowski Davis Drury"
ISRC PLH161400206
INDEX 01 00:00:00
FILE "06 - Modules.wav" WAVE
TRACK 06 AUDIO
TITLE "Modules"
PERFORMER "3D: Dąbrowski Davis Drury"
ISRC PLH161400207
INDEX 01 00:00:00
FILE "07 - Mauve.wav" WAVE
TRACK 07 AUDIO
TITLE "Mauve"
PERFORMER "3D: Dąbrowski Davis Drury"
ISRC PLH161400208
INDEX 01 00:00:00
FILE "08 - Puce.wav" WAVE
TRACK 08 AUDIO
TITLE "Puce"
PERFORMER "3D: Dąbrowski Davis Drury"
ISRC PLH161400209
INDEX 01 00:00:00
FILE "09 - Mattock Phrasemonger.wav" WAVE
TRACK 09 AUDIO
TITLE "Mattock Phrasemonger"
PERFORMER "3D: Dąbrowski Davis Drury"
ISRC PLH161400210
INDEX 01 00:00:00
FILE "10 - Livid.wav" WAVE
TRACK 10 AUDIO
TITLE "Livid"
PERFORMER "3D: Dąbrowski Davis Drury"
ISRC PLH161400211
INDEX 01 00:00:00
FILE "11 - Taude.wav" WAVE
TRACK 11 AUDIO
TITLE "Taude"
PERFORMER "3D: Dąbrowski Davis Drury"
ISRC PLH161400212
INDEX 01 00:00:00
FILE "12 - Ruddy Rudi.wav" WAVE
TRACK 12 AUDIO
TITLE "Ruddy Rudi"
PERFORMER "3D: Dąbrowski Davis Drury"
ISRC PLH161400213
INDEX 01 00:00:00
FILE "13 - Apricot, Apricot.wav" WAVE
TRACK 13 AUDIO
TITLE "Apricot, Apricot"
PERFORMER "3D: Dąbrowski Davis Drury"
ISRC PLH161400214
INDEX 01 00:00:00
FILE "14 - Tawny.wav" WAVE
TRACK 14 AUDIO
TITLE "Tawny"
PERFORMER "3D: Dąbrowski Davis Drury"
ISRC PLH161400215
INDEX 01 00:00:00
По всем вопросам пишите личное сообщение пользователю M0p94ok.
13:18
132
Нет комментариев. Ваш будет первым!