Вы используете незарегистрированную версию компонента "Вкладки"!

Поиск

(Avant-Garde Jazz, Electric Jazz) [CD] Jozef Dumoulin Trio - Rainbow Body - 2011, FLAC (tracks+.cue), lossless

(Avant-Garde Jazz, Electric Jazz) [CD] Jozef Dumoulin Trio - Rainbow Body - 2011, FLAC (tracks+.cue), lossless
Треклист:
Jozef Dumoulin Trio - Rainbow Body
Жанр: Avant-Garde Jazz, Electric Jazz
Носитель: CD
Страна-производитель диска (релиза): Франция
Год издания: 2011
Издатель (лейбл): Bee Jazz
Номер по каталогу: BEE 048
Аудиокодек: FLAC (*.flac)
Тип рипа: tracks+.cue
Битрейт аудио: lossless
Продолжительность: 56:31
Источник (релизер): tdelyon
Наличие сканов в содержимом раздачи: да
Треклист:
01. Mata (Dumoulin-Dunn-Thielemans) - 4:49
02. For the Monsters Under Our Beds (Dumoulin-Dunn-Thielemans) - 2:06
03. Fuga X (Dumoulin) - 4:41
04. Mei (Dumoulin) - 6:01
05. Shinji (Dumoulin-Dunn-Thielemans) - 3:37
06. The Dragon Warrior (Dumoulin) - 3:56
07. Volkan (Dumoulin) - 8:36
08. Somayeh (Dumoulin) - 0:38
09. Sosuke (Dumoulin) - 3:28
10. Birthday Cake (Dumoulin) - 4:50
11. Sachiko (Dumoulin) - 5:13
12. Venkataraman (Dumoulin-Dunn-Thielemans) - 4:29
13. Asia (aka La Pivellina) (Dumoulin) - 4:07
Состав:
Jozef Dumoulin - Fender Rhodes, keyboards
Trevor Dunn - electric bass
Eric Thielemans - drums
Recorded at Studio Mercredi 9, Paris in July 2011.
 
Лог создания рипа
Exact Audio Copy V1.0 beta 3 from 29. August 2011
EAC extraction logfile from 12. November 2011, 16:56
Jozef Dumoulin / Rainbow Body
Used drive : PHILIPS SPD3400CC Adapter: 3 ID: 0
Read mode : Secure
Utilize accurate stream : Yes
Defeat audio cache : Yes
Make use of C2 pointers : No
Read offset correction : 6
Overread into Lead-In and Lead-Out : No
Fill up missing offset samples with silence : Yes
Delete leading and trailing silent blocks : No
Null samples used in CRC calculations : Yes
Used interface : Installed external ASPI interface
Gap handling : Appended to previous track
Used output format : User Defined Encoder
Selected bitrate : 1024 kBit/s
Quality : High
Add ID3 tag : No
Command line compressor : C:\Program Files (x86)\Exact Audio Copy\FLAC\FLAC.EXE
Additional command line options : -8 -V -T "ARTIST=%artist%" -T "TITLE=%title%" -T "ALBUM=%albumtitle%" -T "DATE=%year%" -T "TRACKNUMBER=%tracknr%" -T "TOTALTRACKS=%numtracks%" -T "GENRE=%genre%" -T "ALBUM ARTIST=%albumartist%" -T "ALBUMARTIST=%albumartist%" -T "COMMENT=EAC V1.0 beta 3, Secure Mode, Test & Copy, AccurateRip, FLAC -8" %source%
TOC of the extracted CD
Track | Start | Length | Start sector | End sector
---------------------------------------------------------
1 | 0:00.00 | 4:49.00 | 0 | 21674
2 | 4:49.00 | 2:06.00 | 21675 | 31124
3 | 6:55.00 | 4:41.00 | 31125 | 52199
4 | 11:36.00 | 6:01.00 | 52200 | 79274
5 | 17:37.00 | 3:37.00 | 79275 | 95549
6 | 21:14.00 | 3:56.00 | 95550 | 113249
7 | 25:10.00 | 8:36.00 | 113250 | 151949
8 | 33:46.00 | 0:38.00 | 151950 | 154799
9 | 34:24.00 | 3:28.00 | 154800 | 170399
10 | 37:52.00 | 4:50.00 | 170400 | 192149
11 | 42:42.00 | 5:13.01 | 192150 | 215625
12 | 47:55.01 | 4:29.13 | 215626 | 235813
13 | 52:24.14 | 4:06.61 | 235814 | 254324
Track 1
Filename C:\Rips\01 Mata.wav
Pre-gap length 0:00:02.00
Peak level 94.3 %
Extraction speed 1.9 X
Track quality 100.0 %
Test CRC BFEFCB1B
Copy CRC BFEFCB1B
Track not present in AccurateRip database
Copy OK
Track 2
Filename C:\Rips\02 For The Monsters Under Our Beds.wav
Pre-gap length 0:00:04.00
Peak level 94.4 %
Extraction speed 1.8 X
Track quality 100.0 %
Test CRC 743A9ADE
Copy CRC 743A9ADE
Track not present in AccurateRip database
Copy OK
Track 3
Filename C:\Rips\03 Fuga X.wav
Pre-gap length 0:00:05.00
Peak level 94.4 %
Extraction speed 2.2 X
Track quality 100.0 %
Test CRC CDAB1D21
Copy CRC CDAB1D21
Track not present in AccurateRip database
Copy OK
Track 4
Filename C:\Rips\04 Mei.wav
Pre-gap length 0:00:03.00
Peak level 94.4 %
Extraction speed 2.5 X
Track quality 100.0 %
Test CRC 87E16E9A
Copy CRC 87E16E9A
Track not present in AccurateRip database
Copy OK
Track 5
Filename C:\Rips\05 Shinji.wav
Pre-gap length 0:00:05.00
Peak level 94.4 %
Extraction speed 2.5 X
Track quality 100.0 %
Test CRC F85E442C
Copy CRC F85E442C
Track not present in AccurateRip database
Copy OK
Track 6
Filename C:\Rips\06 The Dragon Warrior.wav
Pre-gap length 0:00:05.00
Peak level 94.4 %
Extraction speed 2.7 X
Track quality 100.0 %
Test CRC AA282AFD
Copy CRC AA282AFD
Track not present in AccurateRip database
Copy OK
Track 7
Filename C:\Rips\07 Volkan.wav
Pre-gap length 0:00:03.00
Peak level 94.4 %
Extraction speed 3.1 X
Track quality 100.0 %
Test CRC 73FA9B31
Copy CRC 73FA9B31
Track not present in AccurateRip database
Copy OK
Track 8
Filename C:\Rips\08 Somayeh.wav
Pre-gap length 0:00:01.00
Peak level 56.8 %
Extraction speed 1.8 X
Track quality 100.0 %
Test CRC 58105FB0
Copy CRC 58105FB0
Track not present in AccurateRip database
Copy OK
Track 9
Filename C:\Rips\09 Sosuke.wav
Pre-gap length 0:00:04.00
Peak level 79.4 %
Extraction speed 3.1 X
Track quality 100.0 %
Test CRC A279364C
Copy CRC A279364C
Track not present in AccurateRip database
Copy OK
Track 10
Filename C:\Rips\10 Birthday Cake.wav
Pre-gap length 0:00:06.00
Peak level 94.4 %
Extraction speed 3.3 X
Track quality 100.0 %
Test CRC 6E1361C6
Copy CRC 6E1361C6
Track not present in AccurateRip database
Copy OK
Track 11
Filename C:\Rips\11 Sachiko.wav
Pre-gap length 0:00:06.00
Peak level 94.3 %
Extraction speed 3.5 X
Track quality 100.0 %
Test CRC 08BC1510
Copy CRC 08BC1510
Track not present in AccurateRip database
Copy OK
Track 12
Filename C:\Rips\12 Venkataraman.wav
Peak level 94.3 %
Extraction speed 3.6 X
Track quality 100.0 %
Test CRC 1DEA0470
Copy CRC 1DEA0470
Track not present in AccurateRip database
Copy OK
Track 13
Filename C:\Rips\13 Asia (Aka La Pivellina).wav
Peak level 56.6 %
Extraction speed 3.6 X
Track quality 100.0 %
Test CRC F5951706
Copy CRC F5951706
Track not present in AccurateRip database
Copy OK
None of the tracks are present in the AccurateRip database
No errors occurred
End of status report
==== Log checksum 8F846778CAC625C1D7EA1630D0F6EED914091AB2C2308FE073B036DB635B1087 ====
 
Содержание индексной карты (.CUE)
REM GENRE Jazz
REM DATE 2011
REM DISCID B90D3F0D
REM COMMENT "ExactAudioCopy v1.0b3"
PERFORMER "Jozef Dumoulin"
TITLE "Rainbow Body"
FILE "01 - Mata.wav" WAVE
TRACK 01 AUDIO
TITLE "Mata"
PERFORMER "Jozef Dumoulin"
INDEX 01 00:00:00
TRACK 02 AUDIO
TITLE "For the Monsters Under Our Beds"
PERFORMER "Jozef Dumoulin"
INDEX 00 04:45:00
FILE "02 - For the Monsters Under Our Beds.wav" WAVE
INDEX 01 00:00:00
TRACK 03 AUDIO
TITLE "Fuga X"
PERFORMER "Jozef Dumoulin"
INDEX 00 02:01:00
FILE "03 - Fuga X.wav" WAVE
INDEX 01 00:00:00
TRACK 04 AUDIO
TITLE "Mei"
PERFORMER "Jozef Dumoulin"
INDEX 00 04:38:00
FILE "04 - Mei.wav" WAVE
INDEX 01 00:00:00
TRACK 05 AUDIO
TITLE "Shinji"
PERFORMER "Jozef Dumoulin"
INDEX 00 05:56:00
FILE "05 - Shinji.wav" WAVE
INDEX 01 00:00:00
TRACK 06 AUDIO
TITLE "The Dragon Warrior"
PERFORMER "Jozef Dumoulin"
INDEX 00 03:32:00
FILE "06 - The Dragon Warrior.wav" WAVE
INDEX 01 00:00:00
TRACK 07 AUDIO
TITLE "Volkan"
PERFORMER "Jozef Dumoulin"
INDEX 00 03:53:00
FILE "07 - Volkan.wav" WAVE
INDEX 01 00:00:00
TRACK 08 AUDIO
TITLE "Somayeh"
PERFORMER "Jozef Dumoulin"
INDEX 00 08:35:00
FILE "08 - Somayeh.wav" WAVE
INDEX 01 00:00:00
TRACK 09 AUDIO
TITLE "Sosuke"
PERFORMER "Jozef Dumoulin"
INDEX 00 00:34:00
FILE "09 - Sosuke.wav" WAVE
INDEX 01 00:00:00
TRACK 10 AUDIO
TITLE "Birthday Cake"
PERFORMER "Jozef Dumoulin"
INDEX 00 03:22:00
FILE "10 - Birthday Cake.wav" WAVE
INDEX 01 00:00:00
TRACK 11 AUDIO
TITLE "Sachiko"
PERFORMER "Jozef Dumoulin"
INDEX 00 04:44:00
FILE "11 - Sachiko.wav" WAVE
INDEX 01 00:00:00
FILE "12 - Venkataraman.wav" WAVE
TRACK 12 AUDIO
TITLE "Venkataraman"
PERFORMER "Jozef Dumoulin"
INDEX 01 00:00:00
FILE "13 - Asia (aka La Pivellina).wav" WAVE
TRACK 13 AUDIO
TITLE "Asia (aka La Pivellina)"
PERFORMER "Jozef Dumoulin"
INDEX 01 00:00:00
 
Отчет CUETools
[CUETools log; Date: 12.05.2015 1:21:59; Version: 2.1.5]
[CTDB TOCID: LZzz07uD3UdHOJViZsRVyCZ.xXk-] found.
Track | CTDB Status
1 | (2/2) Accurately ripped
2 | (2/2) Accurately ripped
3 | (2/2) Accurately ripped
4 | (2/2) Accurately ripped
5 | (2/2) Accurately ripped
6 | (2/2) Accurately ripped
7 | (2/2) Accurately ripped
8 | (2/2) Accurately ripped
9 | (2/2) Accurately ripped
10 | (2/2) Accurately ripped
11 | (2/2) Accurately ripped
12 | (2/2) Accurately ripped
13 | (2/2) Accurately ripped
[AccurateRip ID: 001afacc-010ed04d-b90d3f0d] found.
Track [ CRC | V2 ] Status
01 [dcf2e4df|d8cd4ccc] (0+4/4) Accurately ripped
02 [dd96f68f|645441a2] (0+4/4) Accurately ripped
03 [e98728ea|5abd4e3b] (0+4/4) Accurately ripped
04 [eb691634|efe0c202] (0+4/4) Accurately ripped
05 [243126ba|fdbbe008] (0+4/4) Accurately ripped
06 [b5d44d6b|6e29bbaf] (0+4/4) Accurately ripped
07 [6b0d7cfd|78610b3d] (0+4/4) Accurately ripped
08 [d1870c81|1e4a6d4d] (0+4/4) Accurately ripped
09 [ecc7ab95|7085c73e] (0+4/4) Accurately ripped
10 [651f0746|d8f8b1f0] (0+4/4) Accurately ripped
11 [92189344|be28ba3f] (0+4/4) Accurately ripped
12 [4904129a|6574b174] (0+4/4) Accurately ripped
13 [f0ccd626|4319e1c5] (0+4/4) Accurately ripped
Track Peak [ CRC32 ] [W/O NULL] [ LOG ]
-- 94,4 [644D899E] [ADE00A86]
01 94,3 [BFEFCB1B] [3DF70FE5] CRC32
02 94,4 [743A9ADE] [DDD7497D] CRC32
03 94,4 [CDAB1D21] [27054425] CRC32
04 94,4 [87E16E9A] [D1BC47E6] CRC32
05 94,4 [F85E442C] [B30BDE25] CRC32
06 94,4 [AA282AFD] [3BE3A9CA] CRC32
07 94,4 [73FA9B31] [99D4344B] CRC32
08 56,8 [58105FB0] [58B6E0CD] CRC32
09 79,4 [A279364C] [F0B572AF] CRC32
10 94,4 [6E1361C6] [BA076C40] CRC32
11 94,3 [08BC1510] [FCA42DE9] CRC32
12 94,3 [1DEA0470] [1FA5F2C4] CRC32
13 56,6 [F5951706] [6A16A59D] CRC32
 
Review by Jeff Dayton-Johnson
Belgian pianist Jozef Dumoulin's début release with his band Lidlboj, Trees Are Always Right (Bee Jazz, 2009), revealed this one-time John Taylor student to be something of an aficionado of farting around. This is not meant pejoratively, necessarily; farting around is an honorable activity in some quarters of improvised music, and can give rise to good work (think of Marion Brown's Afternoon of a Georgia Faun (ECM, 1970), for example). That said, the results were encouraging when Dumoulin, as a sideman on reed player Magic Malik's strong Short Cuts (Bee Jazz, 2011), was obliged to keep the farting around in check.
Rainbow Body—essentially an electric-trio record—imposes a further formal discipline on Dumoulin that energizes the proceedings with a focus and coherence missing from Trees.
Rainbow Body's interest and raison d'être derive from its jarring juxtapositions, both in its musical pedigree and in its arrangements and organization. At times Dumoulin solos like an overexcited Chick Corea, but other times his playing more closely resembles Pierre Boulez and the brainy IRCAM crowd. It's jazz in that it's a small group improvising on musical themes, but it also draws upon various generations of electronic and prog-rock sounds and procedures.
In terms of the arrangements, too, there are brash (and sometimes brusque) contrasts. It is rarely the case that all three musicians will pull in different directions, but almost always two are pitted against one: emphatically arrhythmic or atonal (or both) musical materials on one hand, against a conventional and easy-to-grasp framework on the other.
The starkest and probably most successful example is "The Dragon Warrior." Over a cloyingly smooth rhythm track that sounds like a 1980s soft-rock number, solos built from highly-distorted sounds are provided by Dumoulin (certainly) and bassist Trevor Dunn (probably). The contrast is striking, but by the end of the number, the freer- jazz soloists are apparently attempting to hew to the line dictated by the soft-rock number, both in terms of the placement of their rude sound-clusters and in the rising and falling of the notes they play.
On some tracks the keyboards play the straight man, alongside idiosyncratic drumming (as on the subtle "Sosuke," where drummer Eric Thielemans sounds a bit like Paul Motian); on others bassist Dunn anchors the piece (as with " Venkataraman"'s ostinato bass figure). On "Fuga X," (simultaneously an homage to Bach and to Ornette Coleman and Pat Metheny's "Song X," (from Song X (Nonesuch, 1986)?), Dumoulin plays a veritable fugue while the drum and bass turn out a marvelous and entirely straightforward shuffle. The result is not always a success, but the overall effort is always undertaken with intelligence and empathy among the musicians.
The album's overall success and coherence owes a lot to its good sound. Not just Frédéric Carrayol's pristine and full recording, but especially the keyboard sound, upon which Dumoulin lavishes loving attention. Sometimes he sounds like a dated be-beeping 1970s computer, at others he coaxes the chunkiest possible Fender Rhodes sound, with all of its connotations of a diversity of records past.
По всем вопросам пишите личное сообщение пользователю M0p94ok.
13:20
132
Нет комментариев. Ваш будет первым!