Вы используете незарегистрированную версию компонента "Вкладки"!

Поиск

(Avant-Garde Jazz) [CD] Jozef Dumoulin - A Fender Rhodes Solo - 2014, FLAC (tracks+.cue), lossless

(Avant-Garde Jazz) [CD] Jozef Dumoulin - A Fender Rhodes Solo - 2014, FLAC (tracks+.cue), lossless
Треклист:
Jozef Dumoulin - A Fender Rhodes Solo
Жанр: Avant-Garde Jazz
Носитель: CD
Страна-производитель диска (релиза): Франция
Год издания: 2014
Издатель (лейбл): Bee Jazz
Номер по каталогу: BEE 065
Аудиокодек: FLAC (*.flac)
Тип рипа: tracks+.cue
Битрейт аудио: lossless
Продолжительность: 55:24
Источник (релизер): dtromp (what)
Наличие сканов в содержимом раздачи: да
Треклист:
01. Amber (Dumoulin) - 5:44
02. Dissolve (Dumoulin) - 3:19
03. Rapid Transportation (Dumoulin) - 3:46
04. That (Dumoulin) - 3:43
05. Warm Black (Dumoulin) - 3:27
06. Inner White (Dumoulin) - 1:14
07. The Entry Point (Dumoulin) - 3:35
08. Observing Disorder (Dumoulin) - 7:28
09. The Red Hill Medicine (Dumoulin) - 4:20
10. Sungloves (Dumoulin) - 4:25
11. Honeycomb (Dumoulin) - 0:52
12. Try Four (Dumoulin) - 4:40
13. Safety Orange (Dumoulin) - 0:54
14. Questioning the Heroic Approach (Dumoulin) - 2:48
15. And If, Remember (Dumoulin) - 2:50
16. Uncountable Small Actions (Dumoulin) - 2:19
Состав:
Jozef Dumoulin - Fender Rhodes
Recorded at home on March 29 - April 4, 2013.
 
Лог создания рипа
Exact Audio Copy V1.0 beta 3 from 29. August 2011
EAC extraction logfile from 30. September 2014, 16:18
Jozef Dumoulin / A Fender Rhodes Solo
Used drive : ATAPI iHBS112 2 Adapter: 2 ID: 0
Read mode : Secure
Utilize accurate stream : Yes
Defeat audio cache : Yes
Make use of C2 pointers : No
Read offset correction : 6
Overread into Lead-In and Lead-Out : No
Fill up missing offset samples with silence : Yes
Delete leading and trailing silent blocks : No
Null samples used in CRC calculations : Yes
Used interface : Native Win32 interface for Win NT & 2000
Gap handling : Appended to previous track
Used output format : User Defined Encoder
Selected bitrate : 1024 kBit/s
Quality : Low
Add ID3 tag : No
Command line compressor : C:\Program Files\FLAC Frontend\tools\flac.exe
Additional command line options : -8 -V -T "ARTIST=%artist%" -T "TITLE=%title%" -T "ALBUM=%albumtitle%" -T "DATE=%year%" -T "TRACKNUMBER=%tracknr%" -T "TOTALTRACKS=%numtracks%" -T "GENRE=%genre%" -T "ALBUMARTIST=%albumartist%" -T "ALBUM ARTIST=%albumartist%" -T "COMPOSER=%composer%" -T "DISCNUMBER=%cdnumber%" -T "TOTALDISCS=%totalcds%" -T "COMMENT=EAC Secure Mode, Test & Copy, AccurateRip, FLAC -8" %source%
TOC of the extracted CD
Track | Start | Length | Start sector | End sector
---------------------------------------------------------
1 | 0:00.00 | 5:44.00 | 0 | 25799
2 | 5:44.00 | 3:19.00 | 25800 | 40724
3 | 9:03.00 | 3:46.00 | 40725 | 57674
4 | 12:49.00 | 3:43.00 | 57675 | 74399
5 | 16:32.00 | 3:27.00 | 74400 | 89924
6 | 19:59.00 | 1:14.00 | 89925 | 95474
7 | 21:13.00 | 3:35.00 | 95475 | 111599
8 | 24:48.00 | 7:28.00 | 111600 | 145199
9 | 32:16.00 | 4:20.00 | 145200 | 164699
10 | 36:36.00 | 4:25.00 | 164700 | 184574
11 | 41:01.00 | 0:52.00 | 184575 | 188474
12 | 41:53.00 | 4:40.00 | 188475 | 209474
13 | 46:33.00 | 0:54.00 | 209475 | 213524
14 | 47:27.00 | 2:48.00 | 213525 | 226124
15 | 50:15.00 | 2:50.00 | 226125 | 238874
16 | 53:05.00 | 2:19.00 | 238875 | 249299
Track 1
Filename P:\DL\Jozef Dumoulin - A Fender Rhodes Solo (2014) [FLAC]\01 - Amber.wav
Pre-gap length 0:00:02.00
Peak level 75.8 %
Extraction speed 5.4 X
Track quality 100.0 %
Test CRC FA9AE2D4
Copy CRC FA9AE2D4
Track not present in AccurateRip database
Copy OK
Track 2
Filename P:\DL\Jozef Dumoulin - A Fender Rhodes Solo (2014) [FLAC]\02 - Dissolve.wav
Pre-gap length 0:00:03.00
Peak level 59.5 %
Extraction speed 5.6 X
Track quality 100.0 %
Test CRC 2B3AC87A
Copy CRC 2B3AC87A
Track not present in AccurateRip database
Copy OK
Track 3
Filename P:\DL\Jozef Dumoulin - A Fender Rhodes Solo (2014) [FLAC]\03 - Rapid Transportation.wav
Pre-gap length 0:00:03.00
Peak level 57.8 %
Extraction speed 6.0 X
Track quality 100.0 %
Test CRC 16524826
Copy CRC 16524826
Track not present in AccurateRip database
Copy OK
Track 4
Filename P:\DL\Jozef Dumoulin - A Fender Rhodes Solo (2014) [FLAC]\04 - That.wav
Pre-gap length 0:00:01.00
Peak level 81.7 %
Extraction speed 6.5 X
Track quality 100.0 %
Test CRC 3ADAD3F6
Copy CRC 3ADAD3F6
Track not present in AccurateRip database
Copy OK
Track 5
Filename P:\DL\Jozef Dumoulin - A Fender Rhodes Solo (2014) [FLAC]\05 - Warm Black.wav
Pre-gap length 0:00:04.00
Peak level 68.1 %
Extraction speed 6.7 X
Track quality 100.0 %
Test CRC DEE86255
Copy CRC DEE86255
Track not present in AccurateRip database
Copy OK
Track 6
Filename P:\DL\Jozef Dumoulin - A Fender Rhodes Solo (2014) [FLAC]\06 - Inner White.wav
Pre-gap length 0:00:05.00
Peak level 37.6 %
Extraction speed 3.6 X
Track quality 99.8 %
Test CRC 327D4392
Copy CRC 327D4392
Track not present in AccurateRip database
Copy OK
Track 7
Filename P:\DL\Jozef Dumoulin - A Fender Rhodes Solo (2014) [FLAC]\07 - The Entry Point.wav
Pre-gap length 0:00:04.00
Peak level 53.5 %
Extraction speed 7.3 X
Track quality 100.0 %
Test CRC 9682D966
Copy CRC 9682D966
Track not present in AccurateRip database
Copy OK
Track 8
Filename P:\DL\Jozef Dumoulin - A Fender Rhodes Solo (2014) [FLAC]\08 - Observing Disorder.wav
Pre-gap length 0:00:02.00
Peak level 96.6 %
Extraction speed 8.3 X
Track quality 100.0 %
Test CRC 123214C4
Copy CRC 123214C4
Track not present in AccurateRip database
Copy OK
Track 9
Filename P:\DL\Jozef Dumoulin - A Fender Rhodes Solo (2014) [FLAC]\09 - The Red Hill Medicine.wav
Pre-gap length 0:00:05.00
Peak level 76.4 %
Extraction speed 8.4 X
Track quality 100.0 %
Test CRC AE40C1E4
Copy CRC AE40C1E4
Track not present in AccurateRip database
Copy OK
Track 10
Filename P:\DL\Jozef Dumoulin - A Fender Rhodes Solo (2014) [FLAC]\10 - Sungloves.wav
Pre-gap length 0:00:05.00
Peak level 54.3 %
Extraction speed 8.8 X
Track quality 100.0 %
Test CRC 32F63ACF
Copy CRC 32F63ACF
Track not present in AccurateRip database
Copy OK
Track 11
Filename P:\DL\Jozef Dumoulin - A Fender Rhodes Solo (2014) [FLAC]\11 - Honeycomb.wav
Pre-gap length 0:00:03.00
Peak level 73.4 %
Extraction speed 6.0 X
Track quality 100.0 %
Test CRC 4DC3C807
Copy CRC 4DC3C807
Track not present in AccurateRip database
Copy OK
Track 12
Filename P:\DL\Jozef Dumoulin - A Fender Rhodes Solo (2014) [FLAC]\12 - Try Four.wav
Peak level 92.9 %
Extraction speed 9.2 X
Track quality 100.0 %
Test CRC 15699477
Copy CRC 15699477
Track not present in AccurateRip database
Copy OK
Track 13
Filename P:\DL\Jozef Dumoulin - A Fender Rhodes Solo (2014) [FLAC]\13 - Safety Orange.wav
Pre-gap length 0:00:02.00
Peak level 60.2 %
Extraction speed 6.1 X
Track quality 100.0 %
Test CRC 1FE885B7
Copy CRC 1FE885B7
Track not present in AccurateRip database
Copy OK
Track 14
Filename P:\DL\Jozef Dumoulin - A Fender Rhodes Solo (2014) [FLAC]\14 - Questioning The Heroic Approach.wav
Pre-gap length 0:00:01.00
Peak level 54.8 %
Extraction speed 6.9 X
Track quality 99.9 %
Test CRC 444EE79A
Copy CRC 444EE79A
Track not present in AccurateRip database
Copy OK
Track 15
Filename P:\DL\Jozef Dumoulin - A Fender Rhodes Solo (2014) [FLAC]\15 - And If, Remember.wav
Pre-gap length 0:00:05.00
Peak level 50.6 %
Extraction speed 6.8 X
Track quality 99.9 %
Test CRC 12D64155
Copy CRC 12D64155
Track not present in AccurateRip database
Copy OK
Track 16
Filename P:\DL\Jozef Dumoulin - A Fender Rhodes Solo (2014) [FLAC]\16 - Uncountable Small Actions.wav
Pre-gap length 0:00:03.00
Peak level 49.1 %
Extraction speed 8.2 X
Track quality 100.0 %
Test CRC AF1933D1
Copy CRC AF1933D1
Track not present in AccurateRip database
Copy OK
None of the tracks are present in the AccurateRip database
No errors occurred
End of status report
---- CUETools DB Plugin V2.1.3
[CTDB TOCID: JEDsKD8oWwVWFDUUb5PghGpMY7k-] disk not present in database, Submit result: JEDsKD8oWwVWFDUUb5PghGpMY7k- has been uploaded
==== Log checksum 4CDDE05F449077E22976DDD7BEF17643989D36314EDAA0AE35161CC603213AA8 ====
 
Содержание индексной карты (.CUE)
REM GENRE Jazz
REM DATE 2014
REM DISCID F40CFC10
REM COMMENT "ExactAudioCopy v1.0b3"
PERFORMER "Jozef Dumoulin"
TITLE "A Fender Rhodes Solo"
FILE "01 - Amber.wav" WAVE
TRACK 01 AUDIO
TITLE "Amber"
PERFORMER "Jozef Dumoulin"
INDEX 01 00:00:00
TRACK 02 AUDIO
TITLE "Dissolve"
PERFORMER "Jozef Dumoulin"
INDEX 00 05:41:00
FILE "02 - Dissolve.wav" WAVE
INDEX 01 00:00:00
TRACK 03 AUDIO
TITLE "Rapid Transportation"
PERFORMER "Jozef Dumoulin"
INDEX 00 03:16:00
FILE "03 - Rapid Transportation.wav" WAVE
INDEX 01 00:00:00
TRACK 04 AUDIO
TITLE "That"
PERFORMER "Jozef Dumoulin"
INDEX 00 03:45:00
FILE "04 - That.wav" WAVE
INDEX 01 00:00:00
TRACK 05 AUDIO
TITLE "Warm Black"
PERFORMER "Jozef Dumoulin"
INDEX 00 03:39:00
FILE "05 - Warm Black.wav" WAVE
INDEX 01 00:00:00
TRACK 06 AUDIO
TITLE "Inner White"
PERFORMER "Jozef Dumoulin"
INDEX 00 03:22:00
FILE "06 - Inner White.wav" WAVE
INDEX 01 00:00:00
TRACK 07 AUDIO
TITLE "The Entry Point"
PERFORMER "Jozef Dumoulin"
INDEX 00 01:10:00
FILE "07 - The Entry Point.wav" WAVE
INDEX 01 00:00:00
TRACK 08 AUDIO
TITLE "Observing Disorder"
PERFORMER "Jozef Dumoulin"
INDEX 00 03:33:00
FILE "08 - Observing Disorder.wav" WAVE
INDEX 01 00:00:00
TRACK 09 AUDIO
TITLE "The Red Hill Medicine"
PERFORMER "Jozef Dumoulin"
INDEX 00 07:23:00
FILE "09 - The Red Hill Medicine.wav" WAVE
INDEX 01 00:00:00
TRACK 10 AUDIO
TITLE "Sungloves"
PERFORMER "Jozef Dumoulin"
INDEX 00 04:15:00
FILE "10 - Sungloves.wav" WAVE
INDEX 01 00:00:00
TRACK 11 AUDIO
TITLE "Honeycomb"
PERFORMER "Jozef Dumoulin"
INDEX 00 04:22:00
FILE "11 - Honeycomb.wav" WAVE
INDEX 01 00:00:00
FILE "12 - Try Four.wav" WAVE
TRACK 12 AUDIO
TITLE "Try Four"
PERFORMER "Jozef Dumoulin"
INDEX 01 00:00:00
TRACK 13 AUDIO
TITLE "Safety Orange"
PERFORMER "Jozef Dumoulin"
INDEX 00 04:38:00
FILE "13 - Safety Orange.wav" WAVE
INDEX 01 00:00:00
TRACK 14 AUDIO
TITLE "Questioning the Heroic Approach"
PERFORMER "Jozef Dumoulin"
INDEX 00 00:53:00
FILE "14 - Questioning the Heroic Approach.wav" WAVE
INDEX 01 00:00:00
TRACK 15 AUDIO
TITLE "And If, Remember"
PERFORMER "Jozef Dumoulin"
INDEX 00 02:43:00
FILE "15 - And If, Remember.wav" WAVE
INDEX 01 00:00:00
TRACK 16 AUDIO
TITLE "Uncountable Small Actions"
PERFORMER "Jozef Dumoulin"
INDEX 00 02:47:00
FILE "16 - Uncountable Small Actions.wav" WAVE
INDEX 01 00:00:00
 
Отчет CUETools
[CUETools log; Date: 12.05.2015 1:39:34; Version: 2.1.5]
[CTDB TOCID: JEDsKD8oWwVWFDUUb5PghGpMY7k-] found.
Track | CTDB Status
1 | (1/1) Accurately ripped
2 | (1/1) Accurately ripped
3 | (1/1) Accurately ripped
4 | (1/1) Accurately ripped
5 | (1/1) Accurately ripped
6 | (1/1) Accurately ripped
7 | (1/1) Accurately ripped
8 | (1/1) Accurately ripped
9 | (1/1) Accurately ripped
10 | (1/1) Accurately ripped
11 | (1/1) Accurately ripped
12 | (1/1) Accurately ripped
13 | (1/1) Accurately ripped
14 | (1/1) Accurately ripped
15 | (1/1) Accurately ripped
16 | (1/1) Accurately ripped
[AccurateRip ID: 0023564a-01a05fb4-f40cfc10] found.
Track [ CRC | V2 ] Status
01 [b17ee05e|91df4806] (0+1/1) Accurately ripped
02 [0695fd04|c99b17cd] (0+1/1) Accurately ripped
03 [3ef58b1d|da6ee3bb] (0+1/1) Accurately ripped
04 [21cf0957|24c9c036] (0+1/1) Accurately ripped
05 [0c677fdd|aebf3902] (0+1/1) Accurately ripped
06 [d7cca42f|50098ffe] (0+1/1) Accurately ripped
07 [dbd6072e|4d8c369c] (0+1/1) Accurately ripped
08 [1a3be88b|892292ea] (0+1/1) Accurately ripped
09 [e02ed959|f1ba4ee5] (0+1/1) Accurately ripped
10 [5cc6c30b|f0cc2b6e] (0+1/1) Accurately ripped
11 [507941f2|a441730b] (0+1/1) Accurately ripped
12 [3315fc26|225e17fb] (0+1/1) Accurately ripped
13 [6fee141b|260aa108] (0+1/1) Accurately ripped
14 [db06a428|e5c12caf] (0+1/1) Accurately ripped
15 [86e3e002|46d96166] (0+1/1) Accurately ripped
16 [8aa41cde|5168c4dc] (0+1/1) Accurately ripped
Track Peak [ CRC32 ] [W/O NULL] [ LOG ]
-- 96,6 [6BE76340] [25742EA6]
01 75,8 [FA9AE2D4] [A3D287B6] CRC32
02 59,5 [2B3AC87A] [AF0BD75E] CRC32
03 57,8 [16524826] [D5494467] CRC32
04 81,7 [3ADAD3F6] [9E7E1011] CRC32
05 68,1 [DEE86255] [369DF576] CRC32
06 37,6 [327D4392] [88CF1907] CRC32
07 53,5 [9682D966] [BB1012D6] CRC32
08 96,6 [123214C4] [E27A4A0B] CRC32
09 76,4 [AE40C1E4] [7070EC01] CRC32
10 54,3 [32F63ACF] [9B44DE2C] CRC32
11 73,4 [4DC3C807] [0D58C6F1] CRC32
12 92,9 [15699477] [E458BD56] CRC32
13 60,2 [1FE885B7] [E1D7D61C] CRC32
14 54,8 [444EE79A] [640BFA9D] CRC32
15 50,6 [12D64155] [B412E5D5] CRC32
16 49,1 [AF1933D1] [0BFF5E65] CRC32
 
Review by Eyal Hareuveni
Belgian keyboards player Jozef Dumoulin describes his new solo album, his first solo album, as the the first solo album in the history of the electric piano, the Fender Rhodes. It is also a culmination of a long exploratory journey into the various, weird, eccentric sonic qualities of this vintage instrument, enhanced with electronic effects.
The versatile Dumoulin developed a highly personal voice on the keyboards, including the Fender Rhodes, that always flirted with experimental sounds, whether he played with mainstream jazz musicians as saxophonist Mark Turner or pianist Bill Carothers or with innovative improvisers as guitarist Marc Ducret and saxophonist Ellery Eskelin or with his own trio,
Dumoulin says that he never planned consciously to research the Fender Rhodes sonic possibilities but slowly, organically studied more and more on its myriad characteristics. When he decided to record a solo album of the Fender Rhodes he insisted on four constraints—to use the Rhodes and only the Rhodes, to only record improvisations, to isolate tracks within 'regular' duration within these improvisations and to avoid overdubs. Dumoulin allowed himself to add any effects that may fit to each improvisation.
Dumoulin takes the Rhodes to new sonic terrains, liberating it completely from any funk, psychedelic, fusion, rock or jazz associations, and suggests evocative, often enigmatic and cinematic soundscapes. On the 16 concise improvisations recorded in his home he emphasizes the Rhodes almost infinite, resonating and vibrating possibilities while sustaining the instrument sounds, turning these mellow sounds into a meditative, drone improvisation with a series of overtones on "Observing Disorder" and atmospheric, space journey on "Sungloves"; investigates the options to distort, mutate and color its deep sounds with darker, disturbing shades as on "Warm Black" and "The Red Hill Medicine," and structures subtle dramatic narrative as on "The Entry Point."
Eventually Dumoulin succeeds to transform this instrument to a machine that generates experimental sounds that partially brings to mind sounds emanating from the sixties and seventies, the golden age of the Rhodes, but more as futuristic, otherworldly ones, still, all sound fresh.
По всем вопросам пишите личное сообщение пользователю M0p94ok.
13:20
127
Нет комментариев. Ваш будет первым!