Вы используете незарегистрированную версию компонента "Вкладки"!

Поиск

(free jazz) [cd] Iro Haarla & Pepa Päivinen - Yarra Yarra (2001), FLAC (tracks+.cue), lossless

(free jazz) [cd] Iro Haarla & Pepa Päivinen - Yarra Yarra (2001), FLAC (tracks+.cue), lossless
Треклист:
(free jazz) [cd] Iro Haarla & Pepa Päivinen - Yarra Yarra (2001), FLAC (tracks+.cue), lossless


Iro Haarla & Pepa Paivinen - Yarra Yarra (2001)

Жанр: free jazz
Год выпуска: 2001
Издатель (лейбл):November Music (2) / NVR 2017-2
Формат: FLAC (tracks+.cue)
Битрейт аудио: lossless
Продолжительность 58`16
Источник: what.cd
Iro Haarla (p, harp, jeng), Pepa Päivinen (ss, ts, bs, a-fl).

tracks

1 Fenix 3:00
2 Avis Rara 4:15
3 Sparkling Eyes 6:08
4 Like The Sand Of The Ocean 6:22
5 Lona Mosa 5:17
6 Ready To Go 8:40
7 Winter Twilight 4:40
8 Invisible Storm 10:40
9 Satin Ladder 3:58
10 Yarra, Yarra: Dedicated To Edward Vesala 5:16


 
.log
Exact Audio Copy V1.0 beta 2 from 29. April 2011
EAC extraction logfile from 14. July 2013, 18:51
Iro Haarla & Pepa Päivinen / Yarra Yarra
Used drive : TSSTcorpCDDVDW SH-S223L Adapter: 1 ID: 1
Read mode : Secure
Utilize accurate stream : Yes
Defeat audio cache : Yes
Make use of C2 pointers : No
Read offset correction : 6
Overread into Lead-In and Lead-Out : No
Fill up missing offset samples with silence : Yes
Delete leading and trailing silent blocks : No
Null samples used in CRC calculations : Yes
Used interface : Native Win32 interface for Win NT & 2000
Gap handling : Appended to previous track
Used output format : User Defined Encoder
Selected bitrate : 896 kBit/s
Quality : High
Add ID3 tag : No
Command line compressor : C:\Program Files (x86)\Exact Audio Copy\Flac\flac.exe
Additional command line options : -8 -V -T "ARTIST=%artist%" -T "TITLE=%title%" -T "ALBUM=%albumtitle%" -T "DATE=%year%" -T "TRACKNUMBER=%tracknr%" -T "GENRE=%genre%" -T "PERFORMER=%albuminterpret%" -T "COMPOSER=%composer%" %haslyrics%--tag-from-file=LYRIC
TOC of the extracted CD
Track | Start | Length | Start sector | End sector
---------------------------------------------------------
1 | 0:00.00 | 3:00.45 | 0 | 13544
2 | 3:00.45 | 4:14.60 | 13545 | 32654
3 | 7:15.30 | 6:08.35 | 32655 | 60289
4 | 13:23.65 | 6:21.37 | 60290 | 88901
5 | 19:45.27 | 5:17.20 | 88902 | 112696
6 | 25:02.47 | 8:40.23 | 112697 | 151719
7 | 33:42.70 | 4:39.65 | 151720 | 172709
8 | 38:22.60 | 10:39.37 | 172710 | 220671
9 | 49:02.22 | 3:58.45 | 220672 | 238566
10 | 53:00.67 | 5:15.35 | 238567 | 262226
Track 1
Filename M:\Music\What 7\Iro Haarla & Pepa Päivinen - Yarra Yarra (2001) [FLAC]\01 - Fenix.wav
Pre-gap length 0:00:02.00
Peak level 100.0 %
Extraction speed 1.6 X
Track quality 99.9 %
Test CRC 5753344A
Copy CRC 5753344A
Accurately ripped (confidence 2) [C7CB8FFC] (AR v1)
Copy OK
Track 2
Filename M:\Music\What 7\Iro Haarla & Pepa Päivinen - Yarra Yarra (2001) [FLAC]\02 - Avis Rara.wav
Pre-gap length 0:00:05.70
Peak level 99.2 %
Extraction speed 2.0 X
Track quality 100.0 %
Test CRC 69F9BF42
Copy CRC 69F9BF42
Accurately ripped (confidence 1) [09D50600] (AR v1)
Copy OK
Track 3
Filename M:\Music\What 7\Iro Haarla & Pepa Päivinen - Yarra Yarra (2001) [FLAC]\03 - Sparkling eyes.wav
Pre-gap length 0:00:03.86
Peak level 99.9 %
Extraction speed 2.1 X
Track quality 100.0 %
Test CRC 7DBC1B92
Copy CRC 7DBC1B92
Accurately ripped (confidence 1) [AB7E5B2C] (AR v1)
Copy OK
Track 4
Filename M:\Music\What 7\Iro Haarla & Pepa Päivinen - Yarra Yarra (2001) [FLAC]\04 - Like the Sand of the Ocean.wav
Pre-gap length 0:00:03.70
Peak level 100.0 %
Extraction speed 2.1 X
Track quality 100.0 %
Test CRC 14C0C906
Copy CRC 14C0C906
Accurately ripped (confidence 1) [9C24847E] (AR v1)
Copy OK
Track 5
Filename M:\Music\What 7\Iro Haarla & Pepa Päivinen - Yarra Yarra (2001) [FLAC]\05 - Lona Mosa.wav
Pre-gap length 0:00:02.96
Peak level 100.0 %
Extraction speed 2.1 X
Track quality 100.0 %
Test CRC 62F0F68B
Copy CRC 62F0F68B
Accurately ripped (confidence 1) [6366EBA3] (AR v1)
Copy OK
Track 6
Filename M:\Music\What 7\Iro Haarla & Pepa Päivinen - Yarra Yarra (2001) [FLAC]\06 - Ready to Go.wav
Pre-gap length 0:00:02.93
Peak level 100.0 %
Extraction speed 1.9 X
Track quality 99.9 %
Test CRC 085B55FC
Copy CRC 085B55FC
Cannot be verified as accurate (confidence 1) [9E4B60A6], AccurateRip returned [F1D93846] (AR v2)
Copy OK
Track 7
Filename M:\Music\What 7\Iro Haarla & Pepa Päivinen - Yarra Yarra (2001) [FLAC]\07 - Winter Twilight.wav
Pre-gap length 0:00:03.53
Peak level 98.6 %
Extraction speed 1.8 X
Track quality 99.9 %
Test CRC 393F7B1E
Copy CRC 393F7B1E
Cannot be verified as accurate (confidence 1) [EC07CD78], AccurateRip returned [F26B4358] (AR v2)
Copy OK
Track 8
Filename M:\Music\What 7\Iro Haarla & Pepa Päivinen - Yarra Yarra (2001) [FLAC]\08 - Invisible Storm.wav
Pre-gap length 0:00:02.80
Peak level 100.0 %
Extraction speed 2.2 X
Track quality 100.0 %
Test CRC 26AE22CA
Copy CRC 26AE22CA
Accurately ripped (confidence 1) [50807E56] (AR v1)
Copy OK
Track 9
Filename M:\Music\What 7\Iro Haarla & Pepa Päivinen - Yarra Yarra (2001) [FLAC]\09 - Satin Ladder.wav
Pre-gap length 0:00:04.80
Peak level 99.4 %
Extraction speed 2.0 X
Track quality 100.0 %
Test CRC 695B40D2
Copy CRC 695B40D2
Accurately ripped (confidence 1) [A96D76F8] (AR v1)
Copy OK
Track 10
Filename M:\Music\What 7\Iro Haarla & Pepa Päivinen - Yarra Yarra (2001) [FLAC]\10 - Yarra, Yarra.wav
Pre-gap length 0:00:03.20
Peak level 98.7 %
Extraction speed 1.2 X
Track quality 99.8 %
Test CRC 8CF152D7
Copy CRC 8CF152D7
Accurately ripped (confidence 1) [FCCD0FC2] (AR v1)
Copy OK
8 track(s) accurately ripped
2 track(s) could not be verified as accurate
Some tracks could not be verified as accurate
No errors occurred
End of status report
==== Log checksum B668F04CB111CE8F0BA4C5D901B0BBF045BC0C230B58BD5F308DF59B87C97E5C ====
 
.cue
REM GENRE Jazz
REM DATE 2001
REM DISCID 750DA80A
REM COMMENT "ExactAudioCopy v1.0b2"
PERFORMER "Iro Haarla & Pepa Pдivinen"
TITLE "Yarra Yarra"
FILE "01 - Fenix.wav" WAVE
TRACK 01 AUDIO
TITLE "Fenix"
PERFORMER "Iro Haarla & Pepa Pдivinen"
ISRC GBCRK0101701
INDEX 01 00:00:00
TRACK 02 AUDIO
TITLE "Avis Rara"
PERFORMER "Iro Haarla & Pepa Pдivinen"
ISRC GBCRK0101702
INDEX 00 02:54:67
FILE "02 - Avis Rara.wav" WAVE
INDEX 01 00:00:00
TRACK 03 AUDIO
TITLE "Sparkling eyes"
PERFORMER "Iro Haarla & Pepa Pдivinen"
ISRC GBCRK0101703
INDEX 00 04:10:70
FILE "03 - Sparkling eyes.wav" WAVE
INDEX 01 00:00:00
TRACK 04 AUDIO
TITLE "Like the Sand of the Ocean"
PERFORMER "Iro Haarla & Pepa Pдivinen"
ISRC GBCRK0101704
INDEX 00 06:04:57
FILE "04 - Like the Sand of the Ocean.wav" WAVE
INDEX 01 00:00:00
TRACK 05 AUDIO
TITLE "Lona Mosa"
PERFORMER "Iro Haarla & Pepa Pдivinen"
ISRC GBCRK0101705
INDEX 00 06:18:40
FILE "05 - Lona Mosa.wav" WAVE
INDEX 01 00:00:00
TRACK 06 AUDIO
TITLE "Ready to Go"
PERFORMER "Iro Haarla & Pepa Pдivinen"
ISRC GBCRK0101706
INDEX 00 05:14:25
FILE "06 - Ready to Go.wav" WAVE
INDEX 01 00:00:00
TRACK 07 AUDIO
TITLE "Winter Twilight"
PERFORMER "Iro Haarla & Pepa Pдivinen"
ISRC GBCRK0101707
INDEX 00 08:36:58
FILE "07 - Winter Twilight.wav" WAVE
INDEX 01 00:00:00
TRACK 08 AUDIO
TITLE "Invisible Storm"
PERFORMER "Iro Haarla & Pepa Pдivinen"
ISRC GBCRK0101708
INDEX 00 04:37:05
FILE "08 - Invisible Storm.wav" WAVE
INDEX 01 00:00:00
TRACK 09 AUDIO
TITLE "Satin Ladder"
PERFORMER "Iro Haarla & Pepa Pдivinen"
ISRC GBCRK0101709
INDEX 00 10:34:52
FILE "09 - Satin Ladder.wav" WAVE
INDEX 01 00:00:00
TRACK 10 AUDIO
TITLE "Yarra, Yarra"
PERFORMER "Iro Haarla & Pepa Pдivinen"
ISRC GBCRK0101710
INDEX 00 03:55:30
FILE "10 - Yarra, Yarra.wav" WAVE
INDEX 01 00:00:00

http://www.discogs.com/Iro-Haarla-Pepa-P%C3%A4ivinen-Yarra-Yarra/release/3424025
другие релизы
По всем вопросам пишите личное сообщение пользователю M0p94ok.
13:16
162
Нет комментариев. Ваш будет первым!