Вы используете незарегистрированную версию компонента "Вкладки"!

Поиск

(Free Jazz) [CD] Heath Watts / Dan Pell - Breathe If You Can - 2008, FLAC (image+.cue), lossless

(Free Jazz) [CD] Heath Watts / Dan Pell - Breathe If You Can - 2008, FLAC (image+.cue), lossless
Треклист:
Heath Watts and Dan Pell / Breathe If You Can
Жанр: Free Jazz
Носитель: CD
Страна-производитель диска: UK
Год издания: 2008
Издатель (лейбл): Leo Records
Номер по каталогу: CD LR 506
Аудиокодек: FLAC (*.flac)
Тип рипа: image+.cue
Битрейт аудио: lossless
Продолжительность: 56:59
Источник (релизер): cd
Наличие сканов в содержимом раздачи: нет
Треклист:
1 Letters 12:12
2 Work 7:05
3 4 3:34
4 People 5:33
5 On And Off 6:08
6 Crutches 7:09
7 However 3:32
8 Love 5:49
9 Rules 5:51
 
Лог создания рипа
Exact Audio Copy V1.0 beta 2 from 29. April 2011
EAC extraction logfile from 28. November 2013, 11:15
Heath Watts, Dan Pell / Breathe If You Can
Used drive : Optiarc DVD RW AD-7170A Adapter: 0 ID: 0
Read mode : Secure
Utilize accurate stream : Yes
Defeat audio cache : Yes
Make use of C2 pointers : No
Read offset correction : 48
Overread into Lead-In and Lead-Out : No
Fill up missing offset samples with silence : Yes
Delete leading and trailing silent blocks : No
Null samples used in CRC calculations : Yes
Used interface : Native Win32 interface for Win NT & 2000
Used output format : User Defined Encoder
Selected bitrate : 320 kBit/s
Quality : High
Add ID3 tag : No
Command line compressor : C:\Program Files\Exact Audio Copy\Flac\flac.exe
Additional command line options : -V -8 -T "Date=%year%" -T "Genre=%genre%" %source%
TOC of the extracted CD
Track | Start | Length | Start sector | End sector
---------------------------------------------------------
1 | 0:00.00 | 12:12.72 | 0 | 54971
2 | 12:12.72 | 7:05.00 | 54972 | 86846
3 | 19:17.72 | 3:34.38 | 86847 | 102934
4 | 22:52.35 | 5:33.65 | 102935 | 127974
5 | 28:26.25 | 6:08.65 | 127975 | 155639
6 | 34:35.15 | 7:09.38 | 155640 | 187852
7 | 41:44.53 | 3:32.74 | 187853 | 203826
8 | 45:17.52 | 5:49.73 | 203827 | 230074
9 | 51:07.50 | 5:51.37 | 230075 | 256436
Range status and errors
Selected range
Filename K:\ЕАС\Heath Watts, Dan Pell - Breathe If You Can.wav
Peak level 100.0 %
Extraction speed 3.7 X
Range quality 100.0 %
Test CRC 3ED38127
Copy CRC 3ED38127
Copy OK
No errors occurred
AccurateRip summary
Track 1 not present in database
Track 2 not present in database
Track 3 not present in database
Track 4 not present in database
Track 5 not present in database
Track 6 not present in database
Track 7 not present in database
Track 8 not present in database
Track 9 not present in database
None of the tracks are present in the AccurateRip database
End of status report
==== Log checksum DAEA956650F0BA4A844A8DBBC4B3FC20FF4DC4152B8CF118B6A1361D282CA9B5 ====
 
Содержание индексной карты (.CUE)
REM GENRE Jazz
REM DATE 2008
REM DISCID 810D5B09
REM COMMENT "ExactAudioCopy v1.0b2"
PERFORMER "Heath Watts, Dan Pell"
TITLE "Breathe If You Can"
FILE "Heath Watts, Dan Pell - Breathe If You Can.flac" WAVE
TRACK 01 AUDIO
TITLE "Letters"
PERFORMER "Heath Watts, Dan Pell"
ISRC 000000000000
INDEX 01 00:00:00
TRACK 02 AUDIO
TITLE "Work"
PERFORMER "Heath Watts, Dan Pell"
ISRC 000000000000
INDEX 00 12:09:72
INDEX 01 12:12:72
TRACK 03 AUDIO
TITLE "4"
PERFORMER "Heath Watts, Dan Pell"
ISRC 000000000000
INDEX 00 19:14:72
INDEX 01 19:17:72
TRACK 04 AUDIO
TITLE "People"
PERFORMER "Heath Watts, Dan Pell"
ISRC 000000000000
INDEX 00 22:49:35
INDEX 01 22:52:35
TRACK 05 AUDIO
TITLE "On And Off"
PERFORMER "Heath Watts, Dan Pell"
ISRC 000000000000
INDEX 00 28:23:25
INDEX 01 28:26:25
TRACK 06 AUDIO
TITLE "Crutches"
PERFORMER "Heath Watts, Dan Pell"
ISRC 000000000000
INDEX 00 34:32:15
INDEX 01 34:35:15
TRACK 07 AUDIO
TITLE "However"
PERFORMER "Heath Watts, Dan Pell"
ISRC 000000000000
INDEX 00 41:41:53
INDEX 01 41:44:53
TRACK 08 AUDIO
TITLE "Love"
PERFORMER "Heath Watts, Dan Pell"
ISRC 000000000000
INDEX 00 45:14:52
INDEX 01 45:17:52
TRACK 09 AUDIO
TITLE "Rules"
PERFORMER "Heath Watts, Dan Pell"
ISRC 000000000000
INDEX 00 51:04:50
INDEX 01 51:07:50
 
Состав
Drums – Dan Pell
Soprano Saxophone – Heath Watts
Any questions -> support@pro-jazz.com. По всем вопросам пишите -> support@pro-jazz.com
20:57
130
Нет комментариев. Ваш будет первым!