Поиск

(Avant-Garde Jazz) [CD] Macroscopia (Claire DeBrunner, Ken Silverman, Daniel Carter, Tom Zlabinger) - Macroscopia - 2010, FLAC (image+.cue), lossless

(Avant-Garde Jazz) [CD] Macroscopia (Claire DeBrunner, Ken Silverman, Daniel Carter, Tom Zlabinger) - Macroscopia - 2010, FLAC (image+.cue), lossless
Macroscopia / Macroscopia
Жанр: Avant-Garde Jazz
Носитель: CD
Страна-производитель диска: US
Год издания: 2010
Издатель (лейбл): Metier
Номер по каталогу: MJ0403
Аудиокодек: FLAC (*.flac)
Тип рипа: image+.cue
Битрейт аудио: lossless
Продолжительность: 52:07
Источник (релизер): cd
Наличие сканов в содержимом раздачи: нет
Треклист:
1 Opening 4:08
2 Mysterious Breath 6:13
3 Dumbo Twilight 13:43
4 Riff Tide 5:25
5 Life Rattle 9:57
6 To Move As A Shadow 1:28
7 Totem Dance 11:00
 
Лог создания рипа
Exact Audio Copy V1.0 beta 2 from 29. April 2011
EAC extraction logfile from 28. November 2013, 11:59
Macroscopia / Macroscopia
Used drive : Optiarc DVD RW AD-7170A Adapter: 0 ID: 0
Read mode : Secure
Utilize accurate stream : Yes
Defeat audio cache : Yes
Make use of C2 pointers : No
Read offset correction : 48
Overread into Lead-In and Lead-Out : No
Fill up missing offset samples with silence : Yes
Delete leading and trailing silent blocks : No
Null samples used in CRC calculations : Yes
Used interface : Native Win32 interface for Win NT & 2000
Used output format : User Defined Encoder
Selected bitrate : 320 kBit/s
Quality : High
Add ID3 tag : No
Command line compressor : C:\Program Files\Exact Audio Copy\Flac\flac.exe
Additional command line options : -V -8 -T "Date=%year%" -T "Genre=%genre%" %source%
TOC of the extracted CD
Track | Start | Length | Start sector | End sector
---------------------------------------------------------
1 | 0:00.00 | 4:12.58 | 0 | 18957
2 | 4:12.58 | 6:14.54 | 18958 | 47061
3 | 10:27.37 | 13:43.12 | 47062 | 108798
4 | 24:10.49 | 5:27.67 | 108799 | 133390
5 | 29:38.41 | 9:59.59 | 133391 | 178374
6 | 39:38.25 | 1:28.55 | 178375 | 185029
7 | 41:07.05 | 11:00.19 | 185030 | 234548
Range status and errors
Selected range
Filename K:\ЕАС\Macroscopia - Macroscopia.wav
Peak level 100.0 %
Extraction speed 5.1 X
Range quality 100.0 %
Test CRC E534C702
Copy CRC E534C702
Copy OK
No errors occurred
AccurateRip summary
Track 1 accurately ripped (confidence 1) [5AE26645] (AR v2)
Track 2 accurately ripped (confidence 1) [F9D89EA3] (AR v2)
Track 3 accurately ripped (confidence 1) [E125AFB5] (AR v2)
Track 4 accurately ripped (confidence 1) [39D6B796] (AR v2)
Track 5 accurately ripped (confidence 1) [0B7DADDB] (AR v2)
Track 6 accurately ripped (confidence 1) [2C9551B0] (AR v2)
Track 7 accurately ripped (confidence 1) [B03D4162] (AR v2)
All tracks accurately ripped
End of status report
==== Log checksum EFEB33E85FCB6E40785C2682C330EE68FCA442B8228EBE2CC4D03A4F7D498FE8 ====
 
Содержание индексной карты (.CUE)
REM GENRE Jazz
REM DATE 2010
REM DISCID 5C0C3707
REM COMMENT "ExactAudioCopy v1.0b2"
CATALOG 0809730040320
PERFORMER "Macroscopia"
TITLE "Macroscopia"
FILE "Macroscopia - Macroscopia.flac" WAVE
TRACK 01 AUDIO
TITLE "Opening"
PERFORMER "Macroscopia"
ISRC GBBDZ1026153
INDEX 01 00:00:00
TRACK 02 AUDIO
TITLE "Mysterious Breath"
PERFORMER "Macroscopia"
ISRC GBBDZ1026154
INDEX 00 04:11:06
INDEX 01 04:12:58
TRACK 03 AUDIO
TITLE "Dumbo Twilight"
PERFORMER "Macroscopia"
ISRC GBBDZ1026155
INDEX 00 10:26:26
INDEX 01 10:27:37
TRACK 04 AUDIO
TITLE "Riff Tide"
PERFORMER "Macroscopia"
ISRC GBBDZ1026156
INDEX 01 24:10:49
TRACK 05 AUDIO
TITLE "Life Rattle"
PERFORMER "Macroscopia"
ISRC GBBDZ1026157
INDEX 00 29:35:55
INDEX 01 29:38:41
TRACK 06 AUDIO
TITLE "To Move As A Shadow"
PERFORMER "Macroscopia"
ISRC GBBDZ1026158
INDEX 00 39:36:26
INDEX 01 39:38:25
TRACK 07 AUDIO
TITLE "Totem Dance"
PERFORMER "Macroscopia"
ISRC GBBDZ1026159
INDEX 01 41:07:05
 
Состав
Bass – Tom Zlabinger
Bassoon – Claire DeBrunner
Guitar, Oud, Hand Percussion – Ken Silverman
Reeds, Trumpet – Daniel Carter
20:56
511
Нет комментариев. Ваш будет первым!