Вы используете незарегистрированную версию компонента "Вкладки"!

Поиск

(Free Improvisation, Free Jazz) [CD] Mario Schiano, Peter Kowald, Gianluigi Trovesi, Paul Lovens, Radu Malfatti, Pino Minafra - Benefit Concert - 2012, FLAC (image+.cue), lossless

(Free Improvisation, Free Jazz) [CD] Mario Schiano, Peter Kowald, Gianluigi Trovesi, Paul Lovens, Radu Malfatti, Pino Minafra - Benefit Concert - 2012, FLAC (image+.cue), lossless
Треклист:
Mario Schiano, Peter Kowald, Gianluigi Trovesi, Paul Lovens, Radu Malfatti, Pino Minafra / Benefit Concert
Жанр: Free Improvisation, Free Jazz
Носитель: CD
Страна-производитель диска: Italy
Год издания: 2012
Издатель (лейбл): Splasc(h) Records
Номер по каталогу: CDHP20.2
Аудиокодек: FLAC (*.flac)
Тип рипа: image+.cue
Битрейт аудио: lossless
Продолжительность: 39:15
Источник (релизер): cd
Наличие сканов в содержимом раздачи: нет
Треклист:
1 A 5:12
2 B 4:08
3 C 3:02
4 D 7:08
5 E 10:19
6 F 6:09
7 G (Lover Man) 2:53
 
Лог создания рипа
Exact Audio Copy V1.0 beta 2 from 29. April 2011
EAC extraction logfile from 28. November 2013, 13:25
Mario Schiano / Benefit Concert
Used drive : Optiarc DVD RW AD-7170A Adapter: 0 ID: 0
Read mode : Secure
Utilize accurate stream : Yes
Defeat audio cache : Yes
Make use of C2 pointers : No
Read offset correction : 48
Overread into Lead-In and Lead-Out : No
Fill up missing offset samples with silence : Yes
Delete leading and trailing silent blocks : No
Null samples used in CRC calculations : Yes
Used interface : Native Win32 interface for Win NT & 2000
Used output format : User Defined Encoder
Selected bitrate : 320 kBit/s
Quality : High
Add ID3 tag : No
Command line compressor : C:\Program Files\Exact Audio Copy\Flac\flac.exe
Additional command line options : -V -8 -T "Date=%year%" -T "Genre=%genre%" %source%
TOC of the extracted CD
Track | Start | Length | Start sector | End sector
---------------------------------------------------------
1 | 0:00.00 | 5:14.14 | 0 | 23563
2 | 5:14.14 | 4:12.64 | 23564 | 42527
3 | 9:27.03 | 3:02.30 | 42528 | 56207
4 | 12:29.33 | 7:13.28 | 56208 | 88710
5 | 19:42.61 | 10:23.41 | 88711 | 135476
6 | 30:06.27 | 6:14.10 | 135477 | 163536
7 | 36:20.37 | 2:54.55 | 163537 | 176641
Range status and errors
Selected range
Filename K:\ЕАС\Mario Schiano - Benefit Concert.wav
Peak level 100.0 %
Extraction speed 1.8 X
Range quality 99.9 %
Test CRC 69DFF0E8
Copy CRC 69DFF0E8
Copy OK
No errors occurred
AccurateRip summary
Track 1 not present in database
Track 2 not present in database
Track 3 not present in database
Track 4 not present in database
Track 5 not present in database
Track 6 not present in database
Track 7 not present in database
None of the tracks are present in the AccurateRip database
End of status report
==== Log checksum FA5BB14CBB472B283CBE2378AB5F3D9787740E77E2F272A15E1CEEB0134DA892 ====
 
Содержание индексной карты (.CUE)
REM GENRE Jazz
REM DATE 2012
REM DISCID 59093307
REM COMMENT "ExactAudioCopy v1.0b2"
PERFORMER "Mario Schiano"
TITLE "Benefit Concert"
FILE "Mario Schiano - Benefit Concert.flac" WAVE
TRACK 01 AUDIO
TITLE "A"
PERFORMER "Mario Schiano"
ISRC 000000000000
INDEX 01 00:00:00
TRACK 02 AUDIO
TITLE "B"
PERFORMER "Mario Schiano"
ISRC 000000000000
INDEX 00 05:11:14
INDEX 01 05:14:14
TRACK 03 AUDIO
TITLE "C"
PERFORMER "Mario Schiano"
ISRC 000000000000
INDEX 00 09:24:03
INDEX 01 09:27:03
TRACK 04 AUDIO
TITLE "D"
PERFORMER "Mario Schiano"
ISRC 000000000000
INDEX 00 12:26:33
INDEX 01 12:29:33
TRACK 05 AUDIO
TITLE "E"
PERFORMER "Mario Schiano"
ISRC 000000000000
INDEX 00 19:39:61
INDEX 01 19:42:61
TRACK 06 AUDIO
TITLE "F"
PERFORMER "Mario Schiano"
ISRC 000000000000
INDEX 00 30:03:27
INDEX 01 30:06:27
TRACK 07 AUDIO
TITLE "G (Lover Man)"
PERFORMER "Mario Schiano"
ISRC 000000000000
INDEX 00 36:17:37
INDEX 01 36:20:37
Доп. информация: Recorded on March 10, 1989 at the Colosseo Theatre
 
Состав
Alto Saxophone – Mario Schiano
Bass Clarinet, Alto Clarinet, Piccolo Flute – Gianluigi Trovesi
Double Bass – Peter Kowald
Drums – Paul Lovens
Trombone – Radu Malfatti
Trumpet, Flugelhorn, Vocals – Pino Minafra
Any questions -> support@pro-jazz.com. По всем вопросам пишите -> support@pro-jazz.com
20:55
150
Нет комментариев. Ваш будет первым!