Вы используете незарегистрированную версию компонента "Вкладки"!

Поиск

(Free Improvisation, Spoken Word, Free Jazz) [CD] 3 Rocks & a Sock (Steve Dalachinsky, Sébastien (Sebastien) Capazza, Didier Lasserre) - "Merci de votre visite" {Amor Fati Fatum 007, France} - 2006, FLAC (tracks+.cue), lossless

(Free Improvisation, Spoken Word, Free Jazz) [CD] 3 Rocks & a Sock (Steve Dalachinsky, Sébastien (Sebastien) Capazza, Didier Lasserre) - "Merci de votre visite" {Amor Fati Fatum 007, France} - 2006, FLAC (tracks+.cue), lossless
Треклист:
3 Rocks & a Sock / "Merci de votre visite"
Жанр: Free Improvisation, Spoken Word, Free Jazz
Носитель: CD
Страна-производитель диска: France
Год издания: 2006
Издатель (лейбл): Amor Fati
Номер по каталогу: Fatum 007
Страна: France, USA
Аудиокодек: FLAC (*.flac)
Тип рипа: tracks+.cue
Битрейт аудио: lossless
Продолжительность: 00:55:16
Источник (релизер): вот.сиди (Ludovico) / bnepal
Наличие сканов в содержимом раздачи: front scan only
Треклист:
1. Pasolini/Merci "Thank You Come Again"/Too Busy/God Died 11:39
2. The Ultimate Genesis/Shanghied # 6/Like Wild Flower/Urinoir-Histoire 27:11
3. The Portuguese Letters/Insomnia Poems 8:15
4. Cecil Taylor Trio @ Castle Clinton (For (e) Shadow) 8:09
Enregistré le 10 février 2006 au Musée d'Aquitaine, Bordeaux, France.
Personnel:
Steve Dalachinsky - voix & poésie
Sébastien Capazza - saxophone ténor
Didier Lasserre - batterie
 
Лог создания рипа (EAC Log)
Exact Audio Copy V1.0 beta 3 from 29. August 2011
EAC extraction logfile from 12. March 2012, 18:34
3 Rocks & A Sock / Merci De Votre Visite
Used drive : TSSTcorpCDDVDW SE-S084F Adapter: 4 ID: 0
Read mode : Secure
Utilize accurate stream : Yes
Defeat audio cache : Yes
Make use of C2 pointers : No
Read offset correction : 6
Overread into Lead-In and Lead-Out : No
Fill up missing offset samples with silence : Yes
Delete leading and trailing silent blocks : No
Null samples used in CRC calculations : Yes
Used interface : Installed external ASPI interface
Gap handling : Appended to previous track
Used output format : User Defined Encoder
Selected bitrate : 1024 kBit/s
Quality : High
Add ID3 tag : Yes
Command line compressor : C:\Program Files\Exact Audio Copy\FLAC\FLAC.EXE
Additional command line options : -8 -V -T "ARTIST=%artist%" -T "TITLE=%title%" -T "ALBUM=%albumtitle%" -T "DATE=%year%" -T "TRACKNUMBER=%tracknr%" -T "GENRE=%genre%" -T "PERFORMER=%albuminterpret%" -T "COMPOSER=%composer%" %haslyrics%--tag-from-file=LYRICS="%lyricsfile%"%haslyrics% -T "ALBUMARTIST=%albumartist%" -T "DISCNUMBER=%cdnumber%" -T "TOTALDISCS=%totalcds%" -T "TOTALTRACKS=%numtracks%" -T "COMMENT=%comment%" %source% -o %dest%
TOC of the extracted CD
Track | Start | Length | Start sector | End sector
---------------------------------------------------------
1 | 0:00.00 | 11:39.62 | 0 | 52486
2 | 11:39.62 | 27:11.64 | 52487 | 174875
3 | 38:51.51 | 8:15.17 | 174876 | 212017
4 | 47:06.68 | 8:09.15 | 212018 | 248707
Track 1
Filename Z:\Musique Flac\médiathèque\3 Rocks & A Sock - Merci De Votre Visite\01 Pasolini + Merci ''Thank You Come Again'' + Too Busy + Go Died.wav
Pre-gap length 0:00:02.00
Peak level 96.5 %
Extraction speed 2.7 X
Track quality 99.9 %
Test CRC 90E43A62
Copy CRC 90E43A62
Track not present in AccurateRip database
Copy OK
Track 2
Filename Z:\Musique Flac\médiathèque\3 Rocks & A Sock - Merci De Votre Visite\02 The Ultimate Genesis (Elvin Jones Memorial at Riverside Church) + Shanghied #6 + Like Wild Flower + Urinoir-Histoire.wav
Pre-gap length 0:00:02.00
Peak level 96.6 %
Extraction speed 4.2 X
Track quality 100.0 %
Test CRC EF2F0D65
Copy CRC EF2F0D65
Track not present in AccurateRip database
Copy OK
Track 3
Filename Z:\Musique Flac\médiathèque\3 Rocks & A Sock - Merci De Votre Visite\03 The Portuguese Letters + Insomnia Poems.wav
Pre-gap length 0:00:02.00
Peak level 96.5 %
Extraction speed 4.9 X
Track quality 100.0 %
Test CRC 73425842
Copy CRC 73425842
Track not present in AccurateRip database
Copy OK
Track 4
Filename Z:\Musique Flac\médiathèque\3 Rocks & A Sock - Merci De Votre Visite\04 Cecil Taylor Trio @ Castle Clinton (for (e)shadow).wav
Pre-gap length 0:00:02.00
Peak level 96.5 %
Extraction speed 5.0 X
Track quality 100.0 %
Test CRC 299C03B6
Copy CRC 299C03B6
Track not present in AccurateRip database
Copy OK
None of the tracks are present in the AccurateRip database
No errors occurred
End of status report
==== Log checksum 964CE73C76D457D52CAAD177938629FDFC9DD7B6C7C98A97D1BF56D8044D27C1 ====
 
Содержание индексной карты (.CUE)
REM GENRE Jazz
REM DATE 2006
REM DISCID 290CF404
REM COMMENT "ExactAudioCopy v1.0b3"
PERFORMER "3 Rocks & A Sock"
TITLE "Merci De Votre Visite"
FILE "01 Pasolini + Merci ''Thank You Come Again'' + Too Busy + Go Died.wav" WAVE
TRACK 01 AUDIO
TITLE "Pasolini + Merci 'Thank You Come Again' + Too Busy + Go Died"
PERFORMER "3 Rocks & A Sock"
INDEX 01 00:00:00
TRACK 02 AUDIO
TITLE "The Ultimate Genesis (Elvin Jones Memorial at Riverside Church) + Shanghied #..."
PERFORMER "3 Rocks & A Sock"
INDEX 00 11:37:62
FILE "02 The Ultimate Genesis (Elvin Jones Memorial at Riverside Church) + Shanghied #6 + Like Wild Flower + Urinoir-Histoire.wav" WAVE
INDEX 01 00:00:00
TRACK 03 AUDIO
TITLE "The Portuguese Letters + Insomnia Poems"
PERFORMER "3 Rocks & A Sock"
INDEX 00 27:09:64
FILE "03 The Portuguese Letters + Insomnia Poems.wav" WAVE
INDEX 01 00:00:00
TRACK 04 AUDIO
TITLE "Cecil Taylor Trio @ Castle Clinton (for (e)shadow)"
PERFORMER "3 Rocks & A Sock"
INDEX 00 08:13:17
FILE "04 Cecil Taylor Trio @ Castle Clinton (for (e)shadow).wav" WAVE
INDEX 01 00:00:00
 
Лог проверки качества
AUDIOCHECKER v2.0 beta (build 457) - by Dester - opdester@freemail.hu
~~~~~~~~~~~~~~~~~~~~~~~~~~~~~~~~~~
-=== DO NOT EDIT THIS FILE! ===-
Path: ...\3 Rocks & A Sock - Merci De Votre Visite
1 -=- 01 Pasolini + Merci ''Thank You Come Again'' + Too Busy + Go Died.flac -=- CDDA (100%)
2 -=- 02 The Ultimate Genesis (Elvin Jones Memorial at Riverside Church) + Shanghied #6 + Like Wild Flower + Urinoir-Histoire.flac -=- CDDA (100%)
3 -=- 03 The Portuguese Letters + Insomnia Poems.flac -=- CDDA (100%)
4 -=- 04 Cecil Taylor Trio @ Castle Clinton (for (e)shadow).flac -=- CDDA (100%)
Summary 100,00% CDDA
210026644
 
Discogs
Credits▼
Artwork – Mathieu Immer, Patrick Veyssière
Drums – Didier Lasserre
Engineer – David Trescos
Lyrics By – Steve Dalachinsky
Mastered By – Benjamin Duboc
Mixed By – Benjamin Duboc
Narrator – Steve Dalachinsky
Tenor Saxophone – Sébastien Capazza
Voice – Steve Dalachinsky
Notes▼
Enregistré le 10 février 2006 au Musée d'Aquitaine, Bordeaux, France. Un disque co-produit par Amor Fati et Bordeaux Jazz Festival & Permanences de la Littérature dans le cadre des "Live au Musée d'Aquitaine".
Cardboard digisleeve, limited edition of 500.
Each one of the 500 CDs has a different, hand-painted cover art.
Any questions -> support@pro-jazz.com. По всем вопросам пишите -> support@pro-jazz.com
20:55
141
Нет комментариев. Ваш будет первым!