Вы используете незарегистрированную версию компонента "Вкладки"!

Поиск

(Avant-Garde, Free Improvisation, psi) [CD] Urs Leimgruber, Jacques Demierre, Barre Phillips - LDP - Cologne - 2005, FLAC (tracks+.cue), lossless

(Avant-Garde, Free Improvisation, psi) [CD] Urs Leimgruber, Jacques Demierre, Barre Phillips - LDP - Cologne - 2005, FLAC (tracks+.cue), lossless
Треклист:
Urs Leimgruber, Jacques Demierre, Barre Phillips / LDP - Cologne
Жанр: Avant-Garde, Free Improvisation, psi
Носитель: CD
Страна-производитель диска: U.K.
Год издания: 2005
Издатель (лейбл): psi
Номер по каталогу: psi 05.03
Аудиокодек: FLAC (*.flac)
Тип рипа: tracks+.cue
Битрейт аудио: lossless
Продолжительность: 1:01:25
Источник (релизер): я
Наличие сканов в содержимом раздачи: нет
Треклист:
1. Dust 5:41
2. You Can’t Grow Old Again 17:33
3. Spare 8:25
4. The Rugged Cross 12:53
5. Shadows Hands 4:01
6. Applegate Spark 12:53
All music composed by Leimgruber, Demierre, Phillips.
The recordings were made on the 22 and 23 November 2003 at the Loft in Köln.
Urs Leimgruber – Soprano and Tenor Saxophones
Jacques Demierre – Piano
Barre Phillips – Double Bass
 
Лог создания рипа
Exact Audio Copy V1.0 beta 3 from 29. August 2011
EAC extraction logfile from 23. November 2013, 14:53
Urs Leimgruber, Jacques Demierre, Barre Phillips / LDP - Cologne
Used drive : SlimtypeeNAU508 5 Adapter: 1 ID: 0
Read mode : Secure
Utilize accurate stream : Yes
Defeat audio cache : Yes
Make use of C2 pointers : No
Read offset correction : 6
Overread into Lead-In and Lead-Out : No
Fill up missing offset samples with silence : Yes
Delete leading and trailing silent blocks : No
Null samples used in CRC calculations : Yes
Used interface : Native Win32 interface for Win NT & 2000
Gap handling : Appended to previous track
Used output format : User Defined Encoder
Selected bitrate : 768 kBit/s
Quality : High
Add ID3 tag : No
Command line compressor : C:\Program Files (x86)\Exact Audio Copy\Flac\flac.exe
Additional command line options : -8 -V -T "ARTIST=%artist%" -T "TITLE=%title%" -T "ALBUM=%albumtitle%" -T "DATE=%year%" -T "TRACKNUMBER=%tracknr%" -T "GENRE=%genre%" -T "PERFORMER=%albuminterpret%" -T "COMPOSER=%composer%" %haslyrics%--tag-from-file=LYRICS="%lyricsfile%"%haslyrics% -T "ALBUMARTIST=%albumartist%" -T "DISCNUMBER=%cdnumber%" -T "TOTALDISCS=%totalcds%" -T "TOTALTRACKS=%numtracks%" -T "COMMENT=%comment%" %source% -o %dest%
TOC of the extracted CD
Track | Start | Length | Start sector | End sector
---------------------------------------------------------
1 | 0:00.00 | 5:41.13 | 0 | 25587
2 | 5:41.13 | 17:33.12 | 25588 | 104574
3 | 23:14.25 | 8:24.41 | 104575 | 142415
4 | 31:38.66 | 12:52.48 | 142416 | 200363
5 | 44:31.39 | 4:00.68 | 200364 | 218431
6 | 48:32.32 | 12:52.62 | 218432 | 276393
Track 1
Filename C:\EAC rips\01 - Dust.wav
Pre-gap length 0:00:02.00
Peak level 48.5 %
Extraction speed 1.1 X
Track quality 100.0 %
Test CRC EA6AD8D3
Copy CRC EA6AD8D3
Accurately ripped (confidence 3) [EDCA3C8F] (AR v1)
Copy OK
Track 2
Filename C:\EAC rips\02 - You Can't Grow Old Again.wav
Pre-gap length 0:00:04.73
Peak level 98.8 %
Extraction speed 1.5 X
Track quality 100.0 %
Test CRC 33413C56
Copy CRC 33413C56
Accurately ripped (confidence 3) [DD52BE5B] (AR v1)
Copy OK
Track 3
Filename C:\EAC rips\03 - Spare.wav
Pre-gap length 0:00:05.72
Peak level 46.5 %
Extraction speed 1.8 X
Track quality 100.0 %
Test CRC 4C4BC8F5
Copy CRC 4C4BC8F5
Accurately ripped (confidence 3) [A30FE7A9] (AR v1)
Copy OK
Track 4
Filename C:\EAC rips\04 - The Rugged Cross.wav
Pre-gap length 0:00:06.71
Peak level 98.8 %
Extraction speed 2.0 X
Track quality 100.0 %
Test CRC 3DD07D44
Copy CRC 3DD07D44
Accurately ripped (confidence 3) [D9C074BB] (AR v1)
Copy OK
Track 5
Filename C:\EAC rips\05 - Shadows Hands.wav
Pre-gap length 0:00:08.00
Peak level 7.9 %
Extraction speed 2.0 X
Track quality 100.0 %
Test CRC 857E3490
Copy CRC 857E3490
Accurately ripped (confidence 3) [95B2DEB3] (AR v1)
Copy OK
Track 6
Filename C:\EAC rips\06 - Applegate Spark.wav
Pre-gap length 0:00:05.74
Peak level 97.4 %
Extraction speed 2.3 X
Track quality 100.0 %
Test CRC 2E869D41
Copy CRC 2E869D41
Accurately ripped (confidence 3) [FACE8DB6] (AR v1)
Copy OK
All tracks accurately ripped
No errors occurred
End of status report
---- CUETools DB Plugin V2.1.4
[CTDB TOCID: 57esnxuWsSyMgVUx6wa35zFGan0-] disk not present in database
Submit result: 57esnxuWsSyMgVUx6wa35zFGan0- has been uploaded
==== Log checksum 2FF01B772589D1103C475D8F13BF8F9B1870DE0BA3B77DD87AC1DDE08048D80E ====
 
Содержание индексной карты (.CUE)
REM GENRE Jazz
REM DATE 2005
REM DISCID 4B0E6506
REM COMMENT "ExactAudioCopy v1.0b3"
PERFORMER "Urs Leimgruber, Jacques Demierre, Barre Phillips"
TITLE "LDP - Cologne"
FILE "01 - Dust.wav" WAVE
TRACK 01 AUDIO
TITLE "Dust"
PERFORMER "Urs Leimgruber, Jacques Demierre, Barre Phillips"
INDEX 01 00:00:00
TRACK 02 AUDIO
TITLE "You Can't Grow Old Again"
PERFORMER "Urs Leimgruber, Jacques Demierre, Barre Phillips"
INDEX 00 05:36:15
FILE "02 - You Can't Grow Old Again.wav" WAVE
INDEX 01 00:00:00
TRACK 03 AUDIO
TITLE "Spare"
PERFORMER "Urs Leimgruber, Jacques Demierre, Barre Phillips"
INDEX 00 17:27:15
FILE "03 - Spare.wav" WAVE
INDEX 01 00:00:00
TRACK 04 AUDIO
TITLE "The Rugged Cross"
PERFORMER "Urs Leimgruber, Jacques Demierre, Barre Phillips"
INDEX 00 08:17:45
FILE "04 - The Rugged Cross.wav" WAVE
INDEX 01 00:00:00
TRACK 05 AUDIO
TITLE "Shadows Hands"
PERFORMER "Urs Leimgruber, Jacques Demierre, Barre Phillips"
INDEX 00 12:44:48
FILE "05 - Shadows Hands.wav" WAVE
INDEX 01 00:00:00
TRACK 06 AUDIO
TITLE "Applegate Spark"
PERFORMER "Urs Leimgruber, Jacques Demierre, Barre Phillips"
INDEX 00 03:54:69
FILE "06 - Applegate Spark.wav" WAVE
INDEX 01 00:00:00
По всем вопросам пишите личное сообщение пользователю M0p94ok.
20:54
131
Нет комментариев. Ваш будет первым!