Вы используете незарегистрированную версию компонента "Вкладки"!

Поиск

(Contemporary Jazz, Plainisphare) [CD] Francois Chevrolet – Olivier Magnenat (w/ Martin Schutz, Yves Massy, Urs Bloechlinger a. o.) - A cordes et a vents - 1989, FLAC (tracks+.cue), lossless

(Contemporary Jazz, Plainisphare) [CD] Francois Chevrolet – Olivier Magnenat (w/ Martin Schutz, Yves Massy, Urs Bloechlinger a. o.) - A cordes et a vents - 1989, FLAC (tracks+.cue), lossless
Треклист:
François Chevrolet – Olivier Magnenat / À cordes et à vents
Жанр: Contemporary Jazz, Plainisphare
Носитель: CD
Страна-производитель диска: Switzerland
Год издания: 1989
Издатель (лейбл): Plainisphare
Номер по каталогу: PL 1267-44 CD
Аудиокодек: FLAC (*.flac)
Тип рипа: tracks+.cue
Битрейт аудио: lossless
Продолжительность: 1:06:54
Источник (релизер): я
Наличие сканов в содержимом раздачи: нет
Треклист:
1. Blistering Barnacles (François Chevrolet) 6:05
2. Hispano Suiza (Olivier Magnenat) 6:27
3. Horns Ahead (François Chevrolet) 5:06
4. Winds Only (François Chevrolet) 16:02
5. Valse (François Chevrolet) 10:02
6. Blues en série (Olivier Magnenat) 5:48
7. Upside Down (Olivier Magnenat) 6:50
8. Maunoir Song (Olivier Magnenat) 5:34
9. Blues en groupes (François Chevrolet) 5:00
Tous les arrangements pour cordes sont d’Olivier Magnenat.
Tous les arrangements pour vents sont de François Chevrolet.
Enregistré à la RSR Espace 2, studio 11, en mai 1989.
À cordes :
Blaise Catala – violon
Martin Schütz – violoncelle
Christian Graf – guitare
Horacio Fumero – contrebasse (canal droit)
Olivier Magnenat – contrebasse (canal gauche)
À vents :
Jean-François Bovard – trombone (canal droit)
Yves Massy – trombone (canal gauche)
Ian Gordon-Lennox – trompette
Urs Blöchlinger – saxophone basse
François Chevrolet – saxophone alto
et :
Pierre Gauthier – batterie
 
Лог создания рипа
Exact Audio Copy V1.0 beta 3 from 29. August 2011
EAC extraction logfile from 20. October 2013, 11:49
François Chevrolet - Olivier Magnenat / À cordes et à vents
Used drive : hp BD E DS6E2LH Adapter: 0 ID: 1
Read mode : Secure
Utilize accurate stream : Yes
Defeat audio cache : Yes
Make use of C2 pointers : No
Read offset correction : 6
Overread into Lead-In and Lead-Out : No
Fill up missing offset samples with silence : Yes
Delete leading and trailing silent blocks : No
Null samples used in CRC calculations : Yes
Used interface : Native Win32 interface for Win NT & 2000
Gap handling : Appended to previous track
Used output format : User Defined Encoder
Selected bitrate : 768 kBit/s
Quality : High
Add ID3 tag : No
Command line compressor : C:\Program Files (x86)\Exact Audio Copy\Flac\flac.exe
Additional command line options : -8 -V -T "ARTIST=%artist%" -T "TITLE=%title%" -T "ALBUM=%albumtitle%" -T "DATE=%year%" -T "TRACKNUMBER=%tracknr%" -T "GENRE=%genre%" -T "PERFORMER=%albuminterpret%" -T "COMPOSER=%composer%" %haslyrics%--tag-from-file=LYRICS="%lyricsfile%"%haslyrics% -T "ALBUMARTIST=%albumartist%" -T "DISCNUMBER=%cdnumber%" -T "TOTALDISCS=%totalcds%" -T "TOTALTRACKS=%numtracks%" -T "COMMENT=%comment%" %source% -o %dest%
TOC of the extracted CD
Track | Start | Length | Start sector | End sector
---------------------------------------------------------
1 | 0:00.33 | 6:05.00 | 33 | 27407
2 | 6:05.33 | 6:26.72 | 27408 | 56429
3 | 12:32.30 | 5:06.00 | 56430 | 79379
4 | 17:38.30 | 16:01.55 | 79380 | 151509
5 | 33:40.10 | 10:01.68 | 151510 | 196652
6 | 43:42.03 | 5:47.47 | 196653 | 222724
7 | 49:29.50 | 6:50.18 | 222725 | 253492
8 | 56:19.68 | 5:34.27 | 253493 | 278569
9 | 61:54.20 | 4:59.55 | 278570 | 301049
Track 1
Filename C:\EAC rips\01 - Blistering Barnacles.wav
Pre-gap length 0:00:02.33
Peak level 76.4 %
Extraction speed 3.1 X
Track quality 100.0 %
Test CRC 4D4C3571
Copy CRC 4D4C3571
Accurately ripped (confidence 1) [EF73A21E] (AR v2)
Copy OK
Track 2
Filename C:\EAC rips\02 - Hispano Suiza.wav
Pre-gap length 0:00:03.70
Peak level 92.2 %
Extraction speed 3.7 X
Track quality 100.0 %
Test CRC 4505911B
Copy CRC 4505911B
Accurately ripped (confidence 1) [F9C171BB] (AR v2)
Copy OK
Track 3
Filename C:\EAC rips\03 - Horns Ahead.wav
Pre-gap length 0:00:05.35
Peak level 65.2 %
Extraction speed 3.9 X
Track quality 100.0 %
Test CRC 3A8EBE3C
Copy CRC 3A8EBE3C
Accurately ripped (confidence 1) [9F7B285F] (AR v2)
Copy OK
Track 4
Filename C:\EAC rips\04 - Horns Ahead - Winds Only.wav
Pre-gap length 0:00:03.25
Peak level 93.5 %
Extraction speed 4.8 X
Track quality 100.0 %
Test CRC FB0F3461
Copy CRC FB0F3461
Accurately ripped (confidence 1) [D95DAB34] (AR v2)
Copy OK
Track 5
Filename C:\EAC rips\05 - Valse - Winds Only.wav
Pre-gap length 0:00:04.35
Peak level 69.7 %
Extraction speed 5.0 X
Track quality 99.9 %
Test CRC 092ED012
Copy CRC 092ED012
Accurately ripped (confidence 1) [888CB9AA] (AR v2)
Copy OK
Track 6
Filename C:\EAC rips\06 - Blues en série.wav
Pre-gap length 0:00:04.70
Peak level 81.8 %
Extraction speed 5.6 X
Track quality 100.0 %
Test CRC CEC6C654
Copy CRC CEC6C654
Accurately ripped (confidence 1) [37F24919] (AR v2)
Copy OK
Track 7
Filename C:\EAC rips\07 - Upside Down.wav
Pre-gap length 0:00:04.60
Peak level 80.6 %
Extraction speed 5.9 X
Track quality 100.0 %
Test CRC 2F4E9F1F
Copy CRC 2F4E9F1F
Accurately ripped (confidence 1) [358FD1B3] (AR v2)
Copy OK
Track 8
Filename C:\EAC rips\08 - Maunoir Song.wav
Pre-gap length 0:00:05.68
Peak level 84.8 %
Extraction speed 6.0 X
Track quality 100.0 %
Test CRC 1D834697
Copy CRC 1D834697
Accurately ripped (confidence 1) [A3761C4A] (AR v2)
Copy OK
Track 9
Filename C:\EAC rips\09 - Blues en groupes.wav
Pre-gap length 0:00:04.27
Peak level 88.1 %
Extraction speed 5.8 X
Track quality 100.0 %
Test CRC 9DA7A813
Copy CRC 9DA7A813
Accurately ripped (confidence 1) [B0BD0507] (AR v2)
Copy OK
All tracks accurately ripped
No errors occurred
End of status report
---- CUETools DB Plugin V2.1.4
[CTDB TOCID: 2Uf86xLzQ6FCxI.A3jDR9tQNJTk-] disk not present in database
Submit result: 2Uf86xLzQ6FCxI.A3jDR9tQNJTk- has been uploaded
==== Log checksum 33E9E6F47797C1FEBFC77EB9A6BFFC52082AAA451D0BD9952BCD78E021AE3AC0 ====
 
Содержание индексной карты (.CUE)
REM GENRE Jazz
REM DATE 1989
REM DISCID 700FAE09
REM COMMENT "ExactAudioCopy v1.0b3"
PERFORMER "François Chevrolet - Olivier Magnenat "
TITLE "À cordes et à vents"
FILE "01 - Blistering Barnacles.wav" WAVE
TRACK 01 AUDIO
TITLE "Blistering Barnacles"
PERFORMER "François Chevrolet - Olivier Magnenat "
PREGAP 00:00:33
INDEX 01 00:00:00
TRACK 02 AUDIO
TITLE "Hispano Suiza"
PERFORMER "François Chevrolet - Olivier Magnenat "
INDEX 00 06:01:05
FILE "02 - Hispano Suiza.wav" WAVE
INDEX 01 00:00:00
TRACK 03 AUDIO
TITLE "Horns Ahead"
PERFORMER "François Chevrolet - Olivier Magnenat "
INDEX 00 06:21:37
FILE "03 - Horns Ahead.wav" WAVE
INDEX 01 00:00:00
TRACK 04 AUDIO
TITLE "Winds Only"
PERFORMER "François Chevrolet - Olivier Magnenat "
INDEX 00 05:02:50
FILE "04 - Winds Only.wav" WAVE
INDEX 01 00:00:00
TRACK 05 AUDIO
TITLE "Valse"
PERFORMER "François Chevrolet - Olivier Magnenat "
INDEX 00 15:57:20
FILE "05 - Valse.wav" WAVE
INDEX 01 00:00:00
TRACK 06 AUDIO
TITLE "Blues en série"
PERFORMER "François Chevrolet - Olivier Magnenat "
INDEX 00 09:56:73
FILE "06 - Blues en série.wav" WAVE
INDEX 01 00:00:00
TRACK 07 AUDIO
TITLE "Upside Down"
PERFORMER "François Chevrolet - Olivier Magnenat "
INDEX 00 05:42:62
FILE "07 - Upside Down.wav" WAVE
INDEX 01 00:00:00
TRACK 08 AUDIO
TITLE "Maunoir Song"
PERFORMER "François Chevrolet - Olivier Magnenat "
INDEX 00 06:44:25
FILE "08 - Maunoir Song.wav" WAVE
INDEX 01 00:00:00
TRACK 09 AUDIO
TITLE "Blues en groupes"
PERFORMER "François Chevrolet - Olivier Magnenat "
INDEX 00 05:30:00
FILE "09 - Blues en groupes.wav" WAVE
INDEX 01 00:00:00
Any questions -> support@pro-jazz.com. По всем вопросам пишите -> support@pro-jazz.com
20:57
153
Нет комментариев. Ваш будет первым!