Вы используете незарегистрированную версию компонента "Вкладки"!

Поиск

(Avant-Garde, Vocal) [CD] Erika Stucky - Black Widow - 2013, FLAC (tracks+.cue), lossless

(Avant-Garde, Vocal) [CD] Erika Stucky - Black Widow - 2013, FLAC (tracks+.cue), lossless
Треклист:
Erika Stucky / Black Widow
Жанр: Avant-Garde, Vocal
Носитель: CD
Страна-производитель диска: Germany
Год издания: 2013
Издатель (лейбл): Traumton Records
Номер по каталогу: 4590
Аудиокодек: FLAC (*.flac)
Тип рипа: tracks+.cue
Битрейт аудио: lossless
Продолжительность: 1:02:48
Источник (релизер): я
Наличие сканов в содержимом раздачи: да
Треклист:
01. Black Betty (Leadbelly) 4:46
02. I’m Good (Stucky) 5:09
03. Mob Mama (Stucky) 3:54
04. Me (Stucky) 4:44
05. Sorry Darling (Brenda Lee / Beatles) 2:39
06. One More (Stucky) 3:57
07. Knees (Stucky) 4:18
08. Spiderlegs (Stucky) 3:07
09. Sniff Me (Stucky) 4:04
10. Helter Skelter (The Beatles) 5:04
11. Easy (Stucky) 2:19
12. Dancerina (Stucky) 4:06
13. Miles High (Stucky) 4:02
14. Shanghaied (Stucky / Jensen) 4:46
15. Watching Over Me (Stucky) 4:05
16. Watching Over Me – To Do (Stucky / Nieve) 1:49
Erika Stucky – Vocals (1-16), Electronica (2, 3, 4, 6, 7), Accordion (4, 14), Keys (2, 4, 13), Digi-Bass (3, 8, 15), Toothpicks (1), Violins (6), Vocal Cabasa (9)
Michael Blair – Drums / Percussions (1, 3, 5, 6, 7, 8), Gongs (12), Drop-Box (5), Railroad Crossing Guard (10), Loops (14), Choir (8)
David Coulter – Musical Saw (11, 12, 13), Octave Violectra (2, 8), Omnichord (4), Fan-Drum (12), Electric Tenor Guitar (3, 8), Prepared Piano (1), Toys (7, 10), Choir (3, 7)
Terry Edwards – Saxophones (3, 4, 7, 8, 10), Flugelhorn (7, 13), Piano (5, 8), Organ (10), Electric Guitar (1, 2, 9), Electric Bass (2, 4, 5, 6), Choir (3, 7)
Knut Jensen – Ukulele (14), Glockenspiel (12), Electronica (3, 7, 10, 14), Keys (3), Harpsichord (11), Blair-Sample-Loops (2, 14), Jet Fighter (10), Choir (3, 7, 8)
Steve Nieve – Prepared Piano (15), Unprepared Piano (15, 16), Reharmonizing (15), Electronica (15)
Lucas Niggli – Drums / Percussion (9, 10, 12), Crotales (12), Glockenspiel (12)
Marc Unternährer – Tuba (9, 10, 12)
Ioanna Seira – Cello (7, 11)
 
Лог создания рипа
Exact Audio Copy V1.0 beta 3 from 29. August 2011
EAC extraction logfile from 29. November 2013, 13:28
Erika Stucky / Black Widow
Used drive : SlimtypeeNAU508 5 Adapter: 1 ID: 0
Read mode : Secure
Utilize accurate stream : Yes
Defeat audio cache : Yes
Make use of C2 pointers : No
Read offset correction : 6
Overread into Lead-In and Lead-Out : No
Fill up missing offset samples with silence : Yes
Delete leading and trailing silent blocks : No
Null samples used in CRC calculations : Yes
Used interface : Native Win32 interface for Win NT & 2000
Gap handling : Appended to previous track
Used output format : User Defined Encoder
Selected bitrate : 768 kBit/s
Quality : High
Add ID3 tag : No
Command line compressor : C:\Program Files (x86)\Exact Audio Copy\Flac\flac.exe
Additional command line options : -8 -V -T "ARTIST=%artist%" -T "TITLE=%title%" -T "ALBUM=%albumtitle%" -T "DATE=%year%" -T "TRACKNUMBER=%tracknr%" -T "GENRE=%genre%" -T "PERFORMER=%albuminterpret%" -T "COMPOSER=%composer%" %haslyrics%--tag-from-file=LYRICS="%lyricsfile%"%haslyrics% -T "ALBUMARTIST=%albumartist%" -T "DISCNUMBER=%cdnumber%" -T "TOTALDISCS=%totalcds%" -T "TOTALTRACKS=%numtracks%" -T "COMMENT=%comment%" %source% -o %dest%
TOC of the extracted CD
Track | Start | Length | Start sector | End sector
---------------------------------------------------------
1 | 0:00.00 | 4:45.60 | 0 | 21434
2 | 4:45.60 | 5:09.34 | 21435 | 44643
3 | 9:55.19 | 3:54.17 | 44644 | 62210
4 | 13:49.36 | 4:43.48 | 62211 | 83483
5 | 18:33.09 | 2:38.52 | 83484 | 95385
6 | 21:11.61 | 3:57.05 | 95386 | 113165
7 | 25:08.66 | 4:17.53 | 113166 | 132493
8 | 29:26.44 | 3:07.22 | 132494 | 146540
9 | 32:33.66 | 4:03.50 | 146541 | 164815
10 | 36:37.41 | 5:03.51 | 164816 | 187591
11 | 41:41.17 | 2:19.36 | 187592 | 198052
12 | 44:00.53 | 4:05.54 | 198053 | 216481
13 | 48:06.32 | 4:02.31 | 216482 | 234662
14 | 52:08.63 | 4:45.47 | 234663 | 256084
15 | 56:54.35 | 4:05.11 | 256085 | 274470
16 | 60:59.46 | 1:48.58 | 274471 | 282628
Track 1
Filename C:\EAC rips\01 - Black Betty.wav
Pre-gap length 0:00:02.00
Peak level 98.9 %
Extraction speed 2.3 X
Track quality 100.0 %
Test CRC 77FBDD6A
Copy CRC 77FBDD6A
Track not present in AccurateRip database
Copy OK
Track 2
Filename C:\EAC rips\02 - I'm Good.wav
Peak level 99.3 %
Extraction speed 2.6 X
Track quality 100.0 %
Test CRC AE76F8D9
Copy CRC AE76F8D9
Track not present in AccurateRip database
Copy OK
Track 3
Filename C:\EAC rips\03 - Mob Mama.wav
Peak level 99.5 %
Extraction speed 2.7 X
Track quality 100.0 %
Test CRC 71AB93B2
Copy CRC 71AB93B2
Track not present in AccurateRip database
Copy OK
Track 4
Filename C:\EAC rips\04 - Me.wav
Peak level 98.7 %
Extraction speed 3.0 X
Track quality 100.0 %
Test CRC E9318FD6
Copy CRC E9318FD6
Track not present in AccurateRip database
Copy OK
Track 5
Filename C:\EAC rips\05 - Sorry Darling.wav
Peak level 98.9 %
Extraction speed 2.2 X
Track quality 99.9 %
Test CRC 200DDE8E
Copy CRC 200DDE8E
Track not present in AccurateRip database
Copy OK
Track 6
Filename C:\EAC rips\06 - One More.wav
Peak level 99.3 %
Extraction speed 2.6 X
Track quality 99.9 %
Test CRC 2011677A
Copy CRC 2011677A
Track not present in AccurateRip database
Copy OK
Track 7
Filename C:\EAC rips\07 - Knees.wav
Peak level 99.5 %
Extraction speed 3.4 X
Track quality 100.0 %
Test CRC 235BD6FF
Copy CRC 235BD6FF
Track not present in AccurateRip database
Copy OK
Track 8
Filename C:\EAC rips\08 - Spiderlegs.wav
Peak level 98.8 %
Extraction speed 3.3 X
Track quality 100.0 %
Test CRC AE9C6AD8
Copy CRC AE9C6AD8
Track not present in AccurateRip database
Copy OK
Track 9
Filename C:\EAC rips\09 - Sniff Me.wav
Peak level 99.0 %
Extraction speed 3.0 X
Track quality 99.9 %
Test CRC FA49BE64
Copy CRC FA49BE64
Track not present in AccurateRip database
Copy OK
Track 10
Filename C:\EAC rips\10 - Helter Skelter.wav
Peak level 99.4 %
Extraction speed 3.9 X
Track quality 100.0 %
Test CRC 6436A5ED
Copy CRC 6436A5ED
Track not present in AccurateRip database
Copy OK
Track 11
Filename C:\EAC rips\11 - Easy.wav
Peak level 98.8 %
Extraction speed 3.6 X
Track quality 100.0 %
Test CRC 3BCA1574
Copy CRC 3BCA1574
Track not present in AccurateRip database
Copy OK
Track 12
Filename C:\EAC rips\12 - Dancerina.wav
Peak level 98.7 %
Extraction speed 4.1 X
Track quality 100.0 %
Test CRC 16D7FEC2
Copy CRC 16D7FEC2
Track not present in AccurateRip database
Copy OK
Track 13
Filename C:\EAC rips\13 - Miles High.wav
Peak level 98.7 %
Extraction speed 4.2 X
Track quality 100.0 %
Test CRC 5780D5F1
Copy CRC 5780D5F1
Track not present in AccurateRip database
Copy OK
Track 14
Filename C:\EAC rips\14 - Shanghaied.wav
Peak level 98.8 %
Extraction speed 4.3 X
Track quality 100.0 %
Test CRC 81C96318
Copy CRC 81C96318
Track not present in AccurateRip database
Copy OK
Track 15
Filename C:\EAC rips\15 - Watching Over Me.wav
Peak level 98.7 %
Extraction speed 4.4 X
Track quality 100.0 %
Test CRC 46F915A1
Copy CRC 46F915A1
Track not present in AccurateRip database
Copy OK
Track 16
Filename C:\EAC rips\16 - Watching Over Me - To Do.wav
Peak level 52.4 %
Extraction speed 3.8 X
Track quality 100.0 %
Test CRC 76665246
Copy CRC 76665246
Track not present in AccurateRip database
Copy OK
None of the tracks are present in the AccurateRip database
No errors occurred
End of status report
---- CUETools DB Plugin V2.1.4
[CTDB TOCID: urXQLaC1EVQegpCFoaifBPH8WDA-] found
Submit result: urXQLaC1EVQegpCFoaifBPH8WDA- has been confirmed
Track | CTDB Status
1 | (1/1) Accurately ripped
2 | (1/1) Accurately ripped
3 | (1/1) Accurately ripped
4 | (1/1) Accurately ripped
5 | (1/1) Accurately ripped
6 | (1/1) Accurately ripped
7 | (1/1) Accurately ripped
8 | (1/1) Accurately ripped
9 | (1/1) Accurately ripped
10 | (1/1) Accurately ripped
11 | (1/1) Accurately ripped
12 | (1/1) Accurately ripped
13 | (1/1) Accurately ripped
14 | (1/1) Accurately ripped
15 | (1/1) Accurately ripped
16 | (1/1) Accurately ripped
==== Log checksum AA1B4F9FA9D1256551BED179ACA3EE20464CA1857FBC9D92BFD88EF807D718E2 ====
 
Содержание индексной карты (.CUE)
REM GENRE Jazz
REM DATE 2013
REM DISCID E60EB810
REM COMMENT "ExactAudioCopy v1.0b3"
CATALOG 0705304459027
PERFORMER "Erika Stucky"
TITLE "Black Widow"
FILE "01 - Black Betty.wav" WAVE
TRACK 01 AUDIO
TITLE "Black Betty"
PERFORMER "Erika Stucky"
ISRC DEE131318201
INDEX 01 00:00:00
FILE "02 - I'm Good.wav" WAVE
TRACK 02 AUDIO
TITLE "I'm Good"
PERFORMER "Erika Stucky"
ISRC DEE131318202
INDEX 01 00:00:00
FILE "03 - Mob Mama.wav" WAVE
TRACK 03 AUDIO
TITLE "Mob Mama"
PERFORMER "Erika Stucky"
ISRC DEE131318203
INDEX 01 00:00:00
FILE "04 - Me.wav" WAVE
TRACK 04 AUDIO
TITLE "Me"
PERFORMER "Erika Stucky"
ISRC DEE131318204
INDEX 01 00:00:00
FILE "05 - Sorry Darling.wav" WAVE
TRACK 05 AUDIO
TITLE "Sorry Darling"
PERFORMER "Erika Stucky"
ISRC DEE131318205
INDEX 01 00:00:00
FILE "06 - One More.wav" WAVE
TRACK 06 AUDIO
TITLE "One More"
PERFORMER "Erika Stucky"
ISRC DEE131318206
INDEX 01 00:00:00
FILE "07 - Knees.wav" WAVE
TRACK 07 AUDIO
TITLE "Knees"
PERFORMER "Erika Stucky"
ISRC DEE131318207
INDEX 01 00:00:00
FILE "08 - Spiderlegs.wav" WAVE
TRACK 08 AUDIO
TITLE "Spiderlegs"
PERFORMER "Erika Stucky"
ISRC DEE131318208
INDEX 01 00:00:00
FILE "09 - Sniff Me.wav" WAVE
TRACK 09 AUDIO
TITLE "Sniff Me"
PERFORMER "Erika Stucky"
ISRC DEE131318209
INDEX 01 00:00:00
FILE "10 - Helter Skelter.wav" WAVE
TRACK 10 AUDIO
TITLE "Helter Skelter"
PERFORMER "Erika Stucky"
ISRC DEE131318210
INDEX 01 00:00:00
FILE "11 - Easy.wav" WAVE
TRACK 11 AUDIO
TITLE "Easy"
PERFORMER "Erika Stucky"
ISRC DEE131318211
INDEX 01 00:00:00
FILE "12 - Dancerina.wav" WAVE
TRACK 12 AUDIO
TITLE "Dancerina"
PERFORMER "Erika Stucky"
ISRC DEE131318212
INDEX 01 00:00:00
FILE "13 - Miles High.wav" WAVE
TRACK 13 AUDIO
TITLE "Miles High"
PERFORMER "Erika Stucky"
ISRC DEE131318213
INDEX 01 00:00:00
FILE "14 - Shanghaied.wav" WAVE
TRACK 14 AUDIO
TITLE "Shanghaied"
PERFORMER "Erika Stucky"
ISRC DEE131318214
INDEX 01 00:00:00
FILE "15 - Watching Over Me.wav" WAVE
TRACK 15 AUDIO
TITLE "Watching Over Me"
PERFORMER "Erika Stucky"
ISRC DEE131318215
INDEX 01 00:00:00
FILE "16 - Watching Over Me - To Do.wav" WAVE
TRACK 16 AUDIO
TITLE "Watching Over Me - To Do"
PERFORMER "Erika Stucky"
ISRC DEE131318216
INDEX 01 00:00:00
Any questions -> support@pro-jazz.com. По всем вопросам пишите -> support@pro-jazz.com
20:58
141
Нет комментариев. Ваш будет первым!