Вы используете незарегистрированную версию компонента "Вкладки"!

Поиск

(Avant-Garde, Experimental) Kostas New Progrram - And End Pleasure - 2007, FLAC (image+.cue), lossless

(Avant-Garde, Experimental) Kostas New Progrram - And End Pleasure - 2007, FLAC (image+.cue), lossless
Треклист:
Kostas New Progrram - And End Pleasure (2007)
Жанр: Avant-Garde, Experimental
Носитель: CD
Год издания: 2007
Издатель (лейбл): Tone Industria (Poland)
Номер по каталогу: TI 24
Страна исполнителя: Poland
Аудиокодек: FLAC (*.flac)
Тип рипа: image+.cue
Битрейт аудио: lossless
Продолжительность: 00:59:52
Источник (релизер): eDonkey/ed2k (SurowyTato)
Наличие сканов в содержимом раздачи: да
Треклист:
01. Pleasure [10:56]
02. Pn Pg Between Stations [14:02]
03. Kill Bak [8:44]
04. Macedonia [7:59]
05. DoKO [1:59]
06. The Greed In 7/4 [7:22]
07. Japanese In The Garden [6:59]
08. End And K [1:50]
 
Лог создания рипа
Exact Audio Copy V0.99 prebeta 5 from 4. May 2009
EAC extraction logfile from 12. June 2010, 19:16
Kostas New Progrram / And End Pleasure
Used drive : PLEXTOR DVDR PX-810SA Adapter: 1 ID: 0
Read mode : Secure
Utilize accurate stream : Yes
Defeat audio cache : Yes
Make use of C2 pointers : No
Read offset correction : 48
Overread into Lead-In and Lead-Out : No
Fill up missing offset samples with silence : Yes
Delete leading and trailing silent blocks : No
Null samples used in CRC calculations : Yes
Used interface : Installed external ASPI interface
Used output format : User Defined Encoder
Selected bitrate : 768 kBit/s
Quality : High
Add ID3 tag : No
Command line compressor : E:\Program Files\Exact Audio Copy\FLAC\FLAC.EXE
Additional command line options : --best -V -T "date=%y" -T "genre=%m" %s
TOC of the extracted CD
Track | Start | Length | Start sector | End sector
---------------------------------------------------------
1 | 0:00.00 | 10:56.32 | 0 | 49231
2 | 10:56.32 | 14:02.37 | 49232 | 112418
3 | 24:58.69 | 8:44.05 | 112419 | 151723
4 | 33:42.74 | 7:59.04 | 151724 | 187652
5 | 41:42.03 | 1:59.09 | 187653 | 196586
6 | 43:41.12 | 7:22.00 | 196587 | 229736
7 | 51:03.12 | 6:59.14 | 229737 | 261175
8 | 58:02.26 | 1:50.32 | 261176 | 269457
Range status and errors
Selected range
Filename E:\INCOMING\EAC\Kostas New Progrram - And End Pleasure.wav
Peak level 97.7 %
Range quality 100.0 %
Test CRC D610CDDD
Copy CRC D610CDDD
Copy OK
No errors occurred
End of status report
 
Содержание индексной карты (.CUE)
REM GENRE "Avant-Garde, Experimental"
REM DATE 2007
REM DISCID 5C0E0808
REM COMMENT "ExactAudioCopy v0.99pb5"
PERFORMER "Kostas New Progrram"
TITLE "And End Pleasure"
FILE "Kostas New Progrram - And End Pleasure.flac" WAVE
TRACK 01 AUDIO
TITLE "Pleasure"
PERFORMER "Kostas New Progrram"
INDEX 01 00:00:00
TRACK 02 AUDIO
TITLE "Pn Pg Between Stations"
PERFORMER "Kostas New Progrram"
INDEX 00 10:53:23
INDEX 01 10:56:32
TRACK 03 AUDIO
TITLE "Kill Bak"
PERFORMER "Kostas New Progrram"
INDEX 00 24:55:57
INDEX 01 24:58:69
TRACK 04 AUDIO
TITLE "Macedonia"
PERFORMER "Kostas New Progrram"
INDEX 00 33:39:68
INDEX 01 33:42:74
TRACK 05 AUDIO
TITLE "DoKO"
PERFORMER "Kostas New Progrram"
INDEX 00 41:39:02
INDEX 01 41:42:03
TRACK 06 AUDIO
TITLE "The Greed In 7/4"
PERFORMER "Kostas New Progrram"
INDEX 00 43:38:28
INDEX 01 43:41:12
TRACK 07 AUDIO
TITLE "Japanese In The Garden"
PERFORMER "Kostas New Progrram"
INDEX 00 51:00:11
INDEX 01 51:03:12
TRACK 08 AUDIO
TITLE "End And K"
PERFORMER "Kostas New Progrram"
INDEX 01 58:02:26
 
Лог проверки качества
-----------------------
DON'T MODIFY THIS FILE
-----------------------
PERFORMER: auCDtect Task Manager, ver. 1.5.1RC6 build 1.5.1.7
Copyright (c) 2008-2010 y-soft. All rights reserved
http://y-soft.org
ANALYZER: auCDtect: CD records authenticity detector, version 0.8.2
Copyright (c) 2004 Oleg Berngardt. All rights reserved.
Copyright (c) 2004 Alexander Djourik. All rights reserved.
FILE: Kostas New Progrram - And End Pleasure.flac
Size: 383897093 Hash: 3B1FAD466C91DD8E133990BB13A8FB60 Accuracy: -m0
Conclusion: CDDA 100%
Signature: 1FDA75DD5B209590CD081840623B4C79DE057B0C
 
Скриншот спектра частот
 
Состав
Wojtek Dobrowolski - guitar
Kostas Georgakopulos - voice, moog, korg, trumpet, lyrics
Kuba Rutkowski - drums
Dominik Strycharski - electronic tenor, alto and soprano blockflutes
Alek Korecki - saxophones
Bronek Duzy - trombone
Any questions -> support@pro-jazz.com. По всем вопросам пишите -> support@pro-jazz.com
20:59
182
Нет комментариев. Ваш будет первым!