Вы используете незарегистрированную версию компонента "Вкладки"!

Поиск

(Contemporary Jazz, Plainisphare) [CD] Jean-François Bovard et La Compagnie d'Eustache - Voyage a l'interieur d'une trompe - 1992, FLAC (tracks+.cue), lossless

(Contemporary Jazz, Plainisphare) [CD] Jean-François Bovard et La Compagnie d'Eustache - Voyage a l'interieur d'une trompe - 1992, FLAC (tracks+.cue), lossless
Треклист:
Jean-François Bovard et La Compagnie d'Eustache / Voyage à l'intérieur d'une trompe
Жанр: Contemporary Jazz, Plainisphare
Носитель: CD
Страна-производитель диска: Switzerland
Год издания: 1992
Издатель (лейбл): Plainisphare
Номер по каталогу: PL 1267-71 CD
Аудиокодек: FLAC (*.flac)
Тип рипа: tracks+.cue
Битрейт аудио: lossless
Продолжительность: 1:03:56
Источник (релизер): я
Наличие сканов в содержимом раздачи: нет
Треклист:
01. Buffet de gare I 1:46
02. Les Alpes 9:25
03. Le Pont du diable 8:17
04. Visite guidée 3:02
05. La Chasse aux sorcières 4:37
06. Descente au Niederdorf 4:55
07. Un garde suisse 1:38
08. Marée lunaire / La Ballade de Léon 5:00
09. Rimini-Plage 4:17
10. Chambre d’hôtel 2:54
11. Déjeuner sur l’autoroute 4:44
12. Le Lendemain de la veille / Petit Cirque 10:16
13. Buffet de gare II 3:05
Composition collective: Jean-François Bovard, Pierre Cochard, Philippe Genevay, Jacques Henry, Philippe Krüttli et Jean Rochat.
Composition de Léon Francioli: « La Ballade de Léon ».
Enregistrement public à la Cave du Théâtr’Onze, Lausanne (Suisse) les 18 et 19 octobre 1991.
Pierre Cochard, Philippe Genevay, Nicolas Morel – trompettes
Jacques Henry, Bernard Trinchan, Jean-François Bovard – trombones
Nicole Aubert – cor
Charles Bürk – tuba
Jean Rochat – percussions
 
Лог создания рипа
Exact Audio Copy V1.0 beta 3 from 29. August 2011
EAC extraction logfile from 22. October 2013, 13:50
Jean-François Bovard et La Compagnie d'Eustache / Voyage à l'intérieur d'une trompe
Used drive : SlimtypeeNAU508 5 Adapter: 1 ID: 0
Read mode : Secure
Utilize accurate stream : Yes
Defeat audio cache : Yes
Make use of C2 pointers : No
Read offset correction : 6
Overread into Lead-In and Lead-Out : No
Fill up missing offset samples with silence : Yes
Delete leading and trailing silent blocks : No
Null samples used in CRC calculations : Yes
Used interface : Native Win32 interface for Win NT & 2000
Gap handling : Appended to previous track
Used output format : User Defined Encoder
Selected bitrate : 768 kBit/s
Quality : High
Add ID3 tag : No
Command line compressor : C:\Program Files (x86)\Exact Audio Copy\Flac\flac.exe
Additional command line options : -8 -V -T "ARTIST=%artist%" -T "TITLE=%title%" -T "ALBUM=%albumtitle%" -T "DATE=%year%" -T "TRACKNUMBER=%tracknr%" -T "GENRE=%genre%" -T "PERFORMER=%albuminterpret%" -T "COMPOSER=%composer%" %haslyrics%--tag-from-file=LYRICS="%lyricsfile%"%haslyrics% -T "ALBUMARTIST=%albumartist%" -T "DISCNUMBER=%cdnumber%" -T "TOTALDISCS=%totalcds%" -T "TOTALTRACKS=%numtracks%" -T "COMMENT=%comment%" %source% -o %dest%
TOC of the extracted CD
Track | Start | Length | Start sector | End sector
---------------------------------------------------------
1 | 0:00.00 | 1:45.50 | 0 | 7924
2 | 1:45.50 | 9:25.05 | 7925 | 50304
3 | 11:10.55 | 8:17.12 | 50305 | 87591
4 | 19:27.67 | 3:02.00 | 87592 | 101241
5 | 22:29.67 | 4:36.38 | 101242 | 121979
6 | 27:06.30 | 4:54.65 | 121980 | 144094
7 | 32:01.20 | 1:38.15 | 144095 | 151459
8 | 33:39.35 | 5:00.20 | 151460 | 173979
9 | 38:39.55 | 4:17.00 | 173980 | 193254
10 | 42:56.55 | 2:53.55 | 193255 | 206284
11 | 45:50.35 | 4:43.50 | 206285 | 227559
12 | 50:34.10 | 10:16.37 | 227560 | 273796
13 | 60:50.47 | 3:04.73 | 273797 | 287669
Track 1
Filename C:\EAC rips\01 - Buffet de gare I.wav
Pre-gap length 0:00:02.00
Peak level 63.7 %
Extraction speed 0.9 X
Track quality 100.0 %
Test CRC 0541AA79
Copy CRC 0541AA79
Track not present in AccurateRip database
Copy OK
Track 2
Filename C:\EAC rips\02 - Les Alpes.wav
Peak level 57.6 %
Extraction speed 1.3 X
Track quality 99.9 %
Test CRC EA7CE2CF
Copy CRC EA7CE2CF
Track not present in AccurateRip database
Copy OK
Track 3
Filename C:\EAC rips\03 - Le Pont du Diable.wav
Peak level 74.0 %
Extraction speed 1.6 X
Track quality 100.0 %
Test CRC 91058E82
Copy CRC 91058E82
Track not present in AccurateRip database
Copy OK
Track 4
Filename C:\EAC rips\04 - Visite guidée.wav
Peak level 64.8 %
Extraction speed 1.6 X
Track quality 100.0 %
Test CRC AFDB6E6C
Copy CRC AFDB6E6C
Track not present in AccurateRip database
Copy OK
Track 5
Filename C:\EAC rips\05 - La Chasse aux sorcières.wav
Peak level 66.0 %
Extraction speed 1.7 X
Track quality 100.0 %
Test CRC 3BC0D3D7
Copy CRC 3BC0D3D7
Track not present in AccurateRip database
Copy OK
Track 6
Filename C:\EAC rips\06 - Descente au Niederdorf.wav
Peak level 88.8 %
Extraction speed 1.9 X
Track quality 100.0 %
Test CRC 1B17741A
Copy CRC 1B17741A
Track not present in AccurateRip database
Copy OK
Track 7
Filename C:\EAC rips\07 - Un garde suisse.wav
Peak level 55.8 %
Extraction speed 1.5 X
Track quality 100.0 %
Test CRC 73F171A3
Copy CRC 73F171A3
Track not present in AccurateRip database
Copy OK
Track 8
Filename C:\EAC rips\08 - Marée lunaire - La Ballade de Léon.wav
Peak level 26.6 %
Extraction speed 2.0 X
Track quality 100.0 %
Test CRC 63EAD895
Copy CRC 63EAD895
Track not present in AccurateRip database
Copy OK
Track 9
Filename C:\EAC rips\09 - Rimini-Plage.wav
Peak level 65.7 %
Extraction speed 2.0 X
Track quality 100.0 %
Test CRC C13306A6
Copy CRC C13306A6
Track not present in AccurateRip database
Copy OK
Track 10
Filename C:\EAC rips\10 - Chambre d'hôtel.wav
Peak level 80.4 %
Extraction speed 2.0 X
Track quality 100.0 %
Test CRC 08DB6523
Copy CRC 08DB6523
Track not present in AccurateRip database
Copy OK
Track 11
Filename C:\EAC rips\11 - Déjeuner sur l'autoroute.wav
Peak level 47.1 %
Extraction speed 2.2 X
Track quality 100.0 %
Test CRC 1FF96CFB
Copy CRC 1FF96CFB
Track not present in AccurateRip database
Copy OK
Track 12
Filename C:\EAC rips\12 - Le Lendemain de la veille - Petit Cirque.wav
Peak level 66.0 %
Extraction speed 2.3 X
Track quality 99.9 %
Test CRC 23C4CBF8
Copy CRC 23C4CBF8
Track not present in AccurateRip database
Copy OK
Track 13
Filename C:\EAC rips\13 - Buffet de gare II.wav
Peak level 65.4 %
Extraction speed 2.2 X
Track quality 100.0 %
Test CRC ABBA906B
Copy CRC ABBA906B
Track not present in AccurateRip database
Copy OK
None of the tracks are present in the AccurateRip database
No errors occurred
End of status report
---- CUETools DB Plugin V2.1.4
[CTDB TOCID: 7UqCibKNWXyZe1juqIyNgNaaOH0-] disk not present in database
Submit result: 7UqCibKNWXyZe1juqIyNgNaaOH0- has been uploaded
==== Log checksum 6A3CA1931578CBC4661875E8DFA3750E5E433A987286C81A661BBD7CD36673EC ====
 
Содержание индексной карты (.CUE)
REM GENRE Jazz
REM DATE 1992
REM DISCID A30EFB0D
REM COMMENT "ExactAudioCopy v1.0b3"
PERFORMER "Jean-François Bovard et La Compagnie d'Eustache"
TITLE "Voyage à l'intérieur d'une trompe"
FILE "01 - Buffet de gare I.wav" WAVE
TRACK 01 AUDIO
TITLE "Buffet de gare I"
PERFORMER "Jean-François Bovard et La Compagnie d'Eustache"
INDEX 01 00:00:00
FILE "02 - Les Alpes.wav" WAVE
TRACK 02 AUDIO
TITLE "Les Alpes"
PERFORMER "Jean-François Bovard et La Compagnie d'Eustache"
INDEX 01 00:00:00
FILE "03 - Le Pont du Diable.wav" WAVE
TRACK 03 AUDIO
TITLE "Le Pont du Diable"
PERFORMER "Jean-François Bovard et La Compagnie d'Eustache"
INDEX 01 00:00:00
FILE "04 - Visite guidée.wav" WAVE
TRACK 04 AUDIO
TITLE "Visite guidée"
PERFORMER "Jean-François Bovard et La Compagnie d'Eustache"
INDEX 01 00:00:00
FILE "05 - La Chasse aux sorcières.wav" WAVE
TRACK 05 AUDIO
TITLE "La Chasse aux sorcières"
PERFORMER "Jean-François Bovard et La Compagnie d'Eustache"
INDEX 01 00:00:00
FILE "06 - Descente au Niederdorf.wav" WAVE
TRACK 06 AUDIO
TITLE "Descente au Niederdorf"
PERFORMER "Jean-François Bovard et La Compagnie d'Eustache"
INDEX 01 00:00:00
FILE "07 - Un garde suisse.wav" WAVE
TRACK 07 AUDIO
TITLE "Un garde suisse"
PERFORMER "Jean-François Bovard et La Compagnie d'Eustache"
INDEX 01 00:00:00
FILE "08 - Marée lunaire - La Ballade de Léon.wav" WAVE
TRACK 08 AUDIO
TITLE "Marée lunaire / La Ballade de Léon"
PERFORMER "Jean-François Bovard et La Compagnie d'Eustache"
INDEX 01 00:00:00
FILE "09 - Rimini-Plage.wav" WAVE
TRACK 09 AUDIO
TITLE "Rimini-Plage"
PERFORMER "Jean-François Bovard et La Compagnie d'Eustache"
INDEX 01 00:00:00
FILE "10 - Chambre d'hôtel.wav" WAVE
TRACK 10 AUDIO
TITLE "Chambre d'hôtel"
PERFORMER "Jean-François Bovard et La Compagnie d'Eustache"
INDEX 01 00:00:00
FILE "11 - Déjeuner sur l'autoroute.wav" WAVE
TRACK 11 AUDIO
TITLE "Déjeuner sur l'autoroute"
PERFORMER "Jean-François Bovard et La Compagnie d'Eustache"
INDEX 01 00:00:00
FILE "12 - Le Lendemain de la veille - Petit Cirque.wav" WAVE
TRACK 12 AUDIO
TITLE "Le Lendemain de la veille / Petit Cirque"
PERFORMER "Jean-François Bovard et La Compagnie d'Eustache"
INDEX 01 00:00:00
FILE "13 - Buffet de gare II.wav" WAVE
TRACK 13 AUDIO
TITLE "Buffet de gare II"
PERFORMER "Jean-François Bovard et La Compagnie d'Eustache"
INDEX 01 00:00:00
По всем вопросам пишите личное сообщение пользователю M0p94ok.
20:59
160
Нет комментариев. Ваш будет первым!