Вы используете незарегистрированную версию компонента "Вкладки"!

Поиск

(Avant-Garde Jazz, Modern Composition) [CD] Szilard Mezei Wind Quartet - Innen - 2011, FLAC (tracks+.cue), lossless

(Avant-Garde Jazz, Modern Composition) [CD] Szilard Mezei Wind Quartet - Innen - 2011, FLAC (tracks+.cue), lossless
Треклист:
Szilard Mezei Wind Quartet / Innen
Жанр: Avant-Garde Jazz, Modern Composition
Носитель: CD
Страна-производитель диска: France
Год издания: 2011
Издатель (лейбл): Ayler Records
Номер по каталогу: AYLCD-122
Страна: Serbia
Аудиокодек: FLAC (*.flac)
Тип рипа: tracks+.cue
Битрейт аудио: lossless
Продолжительность: 76:21
Источник (релизер): свой фирменный диск
Наличие сканов в содержимом раздачи:
Треклист:
1. A Megoldas Lehetetlen Valtozatai | The Impossible Variations Of Solutions 9:22
2. Innen | From Here 11:02
3. Nagymacska | Big Cat 14:33
4. Trio Improvisation 5:37
5. Hep 15 K 14:15
6. Hep 15 R 11:30
7. Regi Tanc | Old Dance 9:59
 
Лог создания рипа
Exact Audio Copy V1.0 beta 3 from 29. August 2011
EAC extraction logfile from 23. November 2013, 21:50
Szilard Mezei Wind Quartet / Innen
Used drive : PIONEER DVD-RW DVR-115D Adapter: 0 ID: 0
Read mode : Secure
Utilize accurate stream : Yes
Defeat audio cache : Yes
Make use of C2 pointers : No
Read offset correction : 48
Overread into Lead-In and Lead-Out : No
Fill up missing offset samples with silence : Yes
Delete leading and trailing silent blocks : No
Null samples used in CRC calculations : Yes
Used interface : Installed external ASPI interface
Gap handling : Appended to previous track
Used output format : User Defined Encoder
Selected bitrate : 896 kBit/s
Quality : High
Add ID3 tag : No
Command line compressor : C:\Program Files\Exact Audio Copy\FLAC\FLAC.EXE
Additional command line options : -6 -V -T "ARTIST=%artist%" -T "TITLE=%title%" -T "ALBUM=%albumtitle%" -T "DATE=%year%" -T "TRACKNUMBER=%tracknr%" -T "GENRE=%genre%" -T "COMMENT=%comment%" -T "BAND=%albuminterpret%" -T "COMPOSER=%composer%" %haslyrics%--tag-from-file=LYRICS="%lyricsfile%"%haslyrics% -T "DISCNUMBER=%cdnumber%" -T "TOTALDISCS=%totalcds%" -T "TOTALTRACKS=%numtracks%" %hascover%--picture="%coverfile%"%hascover% %source% -o %dest%
TOC of the extracted CD
Track | Start | Length | Start sector | End sector
---------------------------------------------------------
1 | 0:00.00 | 9:22.25 | 0 | 42174
2 | 9:22.25 | 11:02.69 | 42175 | 91893
3 | 20:25.19 | 14:33.43 | 91894 | 157411
4 | 34:58.62 | 5:37.45 | 157412 | 182731
5 | 40:36.32 | 14:15.35 | 182732 | 246891
6 | 54:51.67 | 11:30.10 | 246892 | 298651
7 | 66:22.02 | 9:59.59 | 298652 | 343635
Track 1
Filename D:\zzz\01 - A Megoldas Lehetetlen Valtozatai , The Impossible Variations Of Solutions.wav
Pre-gap length 0:00:02.00
Peak level 92.7 %
Extraction speed 3.2 X
Track quality 100.0 %
Test CRC EAEA0944
Copy CRC EAEA0944
Accurately ripped (confidence 1) [D7C7F780] (AR v2)
Copy OK
Track 2
Filename D:\zzz\02 - Innen , From Here.wav
Pre-gap length 0:00:02.00
Peak level 70.4 %
Extraction speed 3.8 X
Track quality 100.0 %
Test CRC FDEF9ABF
Copy CRC FDEF9ABF
Accurately ripped (confidence 1) [17F3623C] (AR v2)
Copy OK
Track 3
Filename D:\zzz\03 - Nagymacska , Big Cat.wav
Pre-gap length 0:00:02.00
Peak level 98.8 %
Extraction speed 4.5 X
Track quality 100.0 %
Test CRC 5BE063D7
Copy CRC 5BE063D7
Accurately ripped (confidence 1) [1BBA33E4] (AR v2)
Copy OK
Track 4
Filename D:\zzz\04 - Trio Improvisation.wav
Pre-gap length 0:00:02.00
Peak level 62.4 %
Extraction speed 4.7 X
Track quality 100.0 %
Test CRC 72DC4932
Copy CRC 72DC4932
Accurately ripped (confidence 1) [82A008F0] (AR v2)
Copy OK
Track 5
Filename D:\zzz\05 - Hep 15 K.wav
Pre-gap length 0:00:02.00
Peak level 83.7 %
Extraction speed 5.4 X
Track quality 100.0 %
Test CRC 773A1A74
Copy CRC 773A1A74
Accurately ripped (confidence 1) [32D7F1E0] (AR v2)
Copy OK
Track 6
Filename D:\zzz\06 - Hep 15 R.wav
Pre-gap length 0:00:02.00
Peak level 81.4 %
Extraction speed 5.7 X
Track quality 100.0 %
Test CRC A8A75323
Copy CRC A8A75323
Accurately ripped (confidence 1) [65FA018F] (AR v2)
Copy OK
Track 7
Filename D:\zzz\07 - Regi Tanc , Old Dance.wav
Pre-gap length 0:00:02.00
Peak level 71.3 %
Extraction speed 6.1 X
Track quality 100.0 %
Test CRC 5D73F883
Copy CRC 5D73F883
Accurately ripped (confidence 1) [5117243F] (AR v2)
Copy OK
All tracks accurately ripped
No errors occurred
End of status report
==== Log checksum 86541D2E2C11125EE401043DCFB85E05AE54F54066D9E61F372C5D6A488DC969 ====
 
Содержание индексной карты (.CUE)
REM GENRE "Modern Composition"
REM DATE 2011
REM DISCID 5A11E507
REM COMMENT "ExactAudioCopy v1.0b3"
PERFORMER "Szilard Mezei Wind Quartet"
TITLE "Innen"
FILE "01 - A Megoldas Lehetetlen Valtozatai , The Impossible Variations Of Solutions.wav" WAVE
TRACK 01 AUDIO
TITLE "A Megoldas Lehetetlen Valtozatai / The Impossible Variations Of Solutions"
PERFORMER "Szilard Mezei Wind Quartet"
FLAGS DCP
INDEX 01 00:00:00
TRACK 02 AUDIO
TITLE "Innen / From Here"
PERFORMER "Szilard Mezei Wind Quartet"
FLAGS DCP
INDEX 00 09:20:25
FILE "02 - Innen , From Here.wav" WAVE
INDEX 01 00:00:00
TRACK 03 AUDIO
TITLE "Nagymacska / Big Cat"
PERFORMER "Szilard Mezei Wind Quartet"
FLAGS DCP
INDEX 00 11:00:69
FILE "03 - Nagymacska , Big Cat.wav" WAVE
INDEX 01 00:00:00
TRACK 04 AUDIO
TITLE "Trio Improvisation"
PERFORMER "Szilard Mezei Wind Quartet"
FLAGS DCP
INDEX 00 14:31:43
FILE "04 - Trio Improvisation.wav" WAVE
INDEX 01 00:00:00
TRACK 05 AUDIO
TITLE "Hep 15 K"
PERFORMER "Szilard Mezei Wind Quartet"
FLAGS DCP
INDEX 00 05:35:45
FILE "05 - Hep 15 K.wav" WAVE
INDEX 01 00:00:00
TRACK 06 AUDIO
TITLE "Hep 15 R"
PERFORMER "Szilard Mezei Wind Quartet"
FLAGS DCP
INDEX 00 14:13:35
FILE "06 - Hep 15 R.wav" WAVE
INDEX 01 00:00:00
TRACK 07 AUDIO
TITLE "Regi Tanc / Old Dance"
PERFORMER "Szilard Mezei Wind Quartet"
FLAGS DCP
INDEX 00 11:28:10
FILE "07 - Regi Tanc , Old Dance.wav" WAVE
INDEX 01 00:00:00
 
Лог проверки качества
d:\>d:\aucdtect -d/-m0 d:\zzz\*.wav
auCDtect: CD records authenticity detector, version 0.8.2
Copyright (c) 2004 Oleg Berngardt. All rights reserved.
Copyright (c) 2004 Alexander Djourik. All rights reserved.
------------------------------------------------------------
Processing file: [01. A Megoldas Lehetetlen Valtozatai - The Impossible Variations Of Solutions.wav]
------------------------------------------------------------
This track looks like CDDA with probability 94%
------------------------------------------------------------
Processing file: [02. Innen - From Here.wav]
------------------------------------------------------------
This track looks like MPEG with probability 90%
------------------------------------------------------------
Processing file: [03. Nagymacska - Big Cat.wav]
------------------------------------------------------------
This track looks like CDDA with probability 100%
------------------------------------------------------------
Processing file: [04. Trio Improvisation.wav]
------------------------------------------------------------
This track looks like CDDA with probability 76%
------------------------------------------------------------
Processing file: [05. Hep 15 K.wav]
------------------------------------------------------------
This track looks like CDDA with probability 86%
------------------------------------------------------------
Processing file: [06. Hep 15 R.wav]
------------------------------------------------------------
This track looks like CDDA with probability 100%
------------------------------------------------------------
Processing file: [07. Regi Tanc - Old Dance.wav]
------------------------------------------------------------
This track looks like CDDA with probability 85%
------------------------------------------------------------
Final Conclusion:
------------------------------------------------------------
These tracks looks like CDDA with probability 100%
Доп. информация:
 
Album Info & AAJ Review
All compositions by Szilard Mezei (SOKOJ)
Recorded on December 22 & 23, 2010 at Studio Vilenjak, Novi Sad.
Mixed by Szilard Mezei
Mastered by B Media & Szilard Mezei
Layout & design by Stephane Berland
Cover painting by unknown artist
Inner artwork by Erzsebet Mezei
Executive producer for Ayler Records is Stephane Berland
please do not ring the bell
who rings the bell
you ring the bell in the rosebud
don't say it like rose-bim-bam-bud
say it simply like this rosebud
a real teardrop
maybe it starts from right here (Otto Tolnai)
Serbian violaist Szilárd Mezei has gained a reputation as a composer/musician that rarely fits into ordinary definitions and conventions. Throughout his career, he has systematically blurred the boundaries between modern chamber contemporary music, European folk-based themes and jazz and free improvisation. His second release with his Wind Quartet, following We Were Watching the Rain (Leo, 2009), is no exception.
With this unique quartet Mezei explores dark and deep-toned textures— playing viola and composing for trombone, tuba and bass clarinet (also, at times, clarinet and alto sax). His writing patiently investigates the colorful sonic possibilities of this rare instrumentation. The interplay of this quartet is superb and it is clear that not only did Mezei find sympathetic musicians, but he selected players keen on exploring his expressive ideas; always ready to challenge themselves.
The title track is one of the set's most beautiful compositions—a hauntingly lyrical, folk-based theme that blossoms slowly, leaving enough room for every musician to explore it in their solo articulations. "Nagymacska (Big Cat)" unfolds from a dissonant motif and features different strategies—in its impressive solo segments and within the quartet's interplay— to solve this dissonance, without losing a common thread throughout this 15-minutes composition.
Over the cours e of 26 minutes, "Hep 15 K" and " Hep 15 R" provide the four musicians a chance to expand on the rhythmic and timbral variations within Mezei's skeletal compositions, seeking nuanced and creative improvised parts. Both compositions feature the quartet's almost telepathic interplay and rich sound.
This unique recording concludes with the aptly named and beautiful "Régi Tánc (Old Dance)," a meditative and rather untimely composition that presents this quartet's wonderful aesthetic.
 
Состав
Szilard Mezei: viola
Bogdan Rankovic: alto sax, bass clarinet, clarinet
Branislav Aksin: trombone
Kornel Papista: tuba
Any questions -> support@pro-jazz.com. По всем вопросам пишите -> support@pro-jazz.com
21:00
138
Нет комментариев. Ваш будет первым!