Вы используете незарегистрированную версию компонента "Вкладки"!

Поиск

(Avant-Garde Jazz, Free Improvisation) [CD] DuH (Frank Gratkowski, Szilard Mezei, Albert Markos, Martin Blume) - In Just - 2011, FLAC (tracks+.cue), lossless

(Avant-Garde Jazz, Free Improvisation) [CD] DuH (Frank Gratkowski, Szilard Mezei, Albert Markos, Martin Blume) - In Just - 2011, FLAC (tracks+.cue), lossless
Треклист:
DuH (Frank Gratkowski, Szilard Mezei, Albert Markos, Martin Blume) / In Just
Жанр: Avant-Garde Jazz, Free Improvisation
Носитель: CD
Страна-производитель диска: Canada
Год издания: 2011
Издатель (лейбл): Red Toucan Records
Номер по каталогу: RT 9341
Страна: Europe
Аудиокодек: FLAC (*.flac)
Тип рипа: tracks+.cue
Битрейт аудио: lossless
Продолжительность: 53:32
Источник (релизер): свой фирменный диск
Наличие сканов в содержимом раздачи:
Треклист:
1. In Just 10:55
2. Spring 6:56
3. Balloonman 6:29
4. Mud-Luscious 4:01
5. Hop-Scotch 6:34
6. Jump-Rope 5:50
7. Far And Wee 2:26
8. Goat-Footed 10:19
 
Лог создания рипа
Exact Audio Copy V1.0 beta 3 from 29. August 2011
EAC extraction logfile from 24. November 2013, 14:39
DuH / In Just
Used drive : PIONEER DVD-RW DVR-115D Adapter: 0 ID: 0
Read mode : Secure
Utilize accurate stream : Yes
Defeat audio cache : Yes
Make use of C2 pointers : No
Read offset correction : 48
Overread into Lead-In and Lead-Out : No
Fill up missing offset samples with silence : Yes
Delete leading and trailing silent blocks : No
Null samples used in CRC calculations : Yes
Used interface : Installed external ASPI interface
Gap handling : Appended to previous track
Used output format : User Defined Encoder
Selected bitrate : 896 kBit/s
Quality : High
Add ID3 tag : No
Command line compressor : C:\Program Files\Exact Audio Copy\FLAC\FLAC.EXE
Additional command line options : -6 -V -T "ARTIST=%artist%" -T "TITLE=%title%" -T "ALBUM=%albumtitle%" -T "DATE=%year%" -T "TRACKNUMBER=%tracknr%" -T "GENRE=%genre%" -T "COMMENT=%comment%" -T "BAND=%albuminterpret%" -T "COMPOSER=%composer%" %haslyrics%--tag-from-file=LYRICS="%lyricsfile%"%haslyrics% -T "DISCNUMBER=%cdnumber%" -T "TOTALDISCS=%totalcds%" -T "TOTALTRACKS=%numtracks%" %hascover%--picture="%coverfile%"%hascover% %source% -o %dest%
TOC of the extracted CD
Track | Start | Length | Start sector | End sector
---------------------------------------------------------
1 | 0:00.00 | 10:55.05 | 0 | 49129
2 | 10:55.05 | 6:56.54 | 49130 | 80383
3 | 17:51.59 | 6:29.10 | 80384 | 109568
4 | 24:20.69 | 4:00.31 | 109569 | 127599
5 | 28:21.25 | 6:33.62 | 127600 | 157136
6 | 34:55.12 | 5:50.05 | 157137 | 183391
7 | 40:45.17 | 2:25.69 | 183392 | 194335
8 | 43:11.11 | 10:20.65 | 194336 | 240900
Track 1
Filename D:\zzz\01 - In Just.wav
Pre-gap length 0:00:02.00
Peak level 84.1 %
Extraction speed 5.0 X
Track quality 100.0 %
Test CRC D024816B
Copy CRC D024816B
Track not present in AccurateRip database
Copy OK
Track 2
Filename D:\zzz\02 - Spring.wav
Pre-gap length 0:00:02.00
Peak level 98.8 %
Extraction speed 5.8 X
Track quality 100.0 %
Test CRC D0BC23B5
Copy CRC D0BC23B5
Track not present in AccurateRip database
Copy OK
Track 3
Filename D:\zzz\03 - Balloonman.wav
Pre-gap length 0:00:02.00
Peak level 68.0 %
Extraction speed 6.3 X
Track quality 100.0 %
Test CRC 9199FE04
Copy CRC 9199FE04
Track not present in AccurateRip database
Copy OK
Track 4
Filename D:\zzz\04 - Mud-Luscious.wav
Pre-gap length 0:00:02.00
Peak level 97.4 %
Extraction speed 6.4 X
Track quality 100.0 %
Test CRC 56E697CE
Copy CRC 56E697CE
Track not present in AccurateRip database
Copy OK
Track 5
Filename D:\zzz\05 - Hop-Scotch.wav
Pre-gap length 0:00:02.00
Peak level 65.8 %
Extraction speed 7.1 X
Track quality 100.0 %
Test CRC CFFBBC81
Copy CRC CFFBBC81
Track not present in AccurateRip database
Copy OK
Track 6
Filename D:\zzz\06 - Jump-Rope.wav
Pre-gap length 0:00:02.00
Peak level 98.8 %
Extraction speed 7.4 X
Track quality 100.0 %
Test CRC CD52ACBB
Copy CRC CD52ACBB
Track not present in AccurateRip database
Copy OK
Track 7
Filename D:\zzz\07 - Far And Wee.wav
Pre-gap length 0:00:02.00
Peak level 98.8 %
Extraction speed 6.8 X
Track quality 100.0 %
Test CRC 7FA1492E
Copy CRC 7FA1492E
Track not present in AccurateRip database
Copy OK
Track 8
Filename D:\zzz\08 - Goat-Footed.wav
Pre-gap length 0:00:02.00
Peak level 98.8 %
Extraction speed 8.0 X
Track quality 99.9 %
Test CRC 0BB39460
Copy CRC 0BB39460
Track not present in AccurateRip database
Copy OK
None of the tracks are present in the AccurateRip database
No errors occurred
End of status report
==== Log checksum 04700C4DAC6C9419EFA6686F98D85F31D53A3BB4B5F0F83FE852FE00F70EA478 ====
 
Содержание индексной карты (.CUE)
REM GENRE "Free Improvisation"
REM DATE 2011
REM DISCID 6D0C8C08
REM COMMENT "ExactAudioCopy v1.0b3"
PERFORMER "DuH"
TITLE "In Just"
FILE "01 - In Just.wav" WAVE
TRACK 01 AUDIO
TITLE "In Just"
PERFORMER "DuH"
INDEX 01 00:00:00
TRACK 02 AUDIO
TITLE "Spring"
PERFORMER "DuH"
INDEX 00 10:53:05
FILE "02 - Spring.wav" WAVE
INDEX 01 00:00:00
TRACK 03 AUDIO
TITLE "Balloonman"
PERFORMER "DuH"
INDEX 00 06:54:54
FILE "03 - Balloonman.wav" WAVE
INDEX 01 00:00:00
TRACK 04 AUDIO
TITLE "Mud-Luscious"
PERFORMER "DuH"
INDEX 00 06:27:10
FILE "04 - Mud-Luscious.wav" WAVE
INDEX 01 00:00:00
TRACK 05 AUDIO
TITLE "Hop-Scotch"
PERFORMER "DuH"
INDEX 00 03:58:31
FILE "05 - Hop-Scotch.wav" WAVE
INDEX 01 00:00:00
TRACK 06 AUDIO
TITLE "Jump-Rope"
PERFORMER "DuH"
INDEX 00 06:31:62
FILE "06 - Jump-Rope.wav" WAVE
INDEX 01 00:00:00
TRACK 07 AUDIO
TITLE "Far And Wee"
PERFORMER "DuH"
INDEX 00 05:48:05
FILE "07 - Far And Wee.wav" WAVE
INDEX 01 00:00:00
TRACK 08 AUDIO
TITLE "Goat-Footed"
PERFORMER "DuH"
INDEX 00 02:23:69
FILE "08 - Goat-Footed.wav" WAVE
INDEX 01 00:00:00
 
Лог проверки качества
d:\>d:\aucdtect -d/-m0 d:\zzz\*.wav
auCDtect: CD records authenticity detector, version 0.8.2
Copyright (c) 2004 Oleg Berngardt. All rights reserved.
Copyright (c) 2004 Alexander Djourik. All rights reserved.
------------------------------------------------------------
Processing file: [01. In Just.wav]
------------------------------------------------------------
This track looks like CDDA with probability 100%
------------------------------------------------------------
Processing file: [02. Spring.wav]
------------------------------------------------------------
This track looks like CDDA with probability 100%
------------------------------------------------------------
Processing file: [03. Balloonman.wav]
------------------------------------------------------------
This track looks like CDDA with probability 100%
------------------------------------------------------------
Processing file: [04. Mud-Luscious.wav]
------------------------------------------------------------
This track looks like CDDA with probability 99%
------------------------------------------------------------
Processing file: [05. Hop-Scotch.wav]
------------------------------------------------------------
This track looks like CDDA with probability 100%
------------------------------------------------------------
Processing file: [06. Jump-Rope.wav]
------------------------------------------------------------
This track looks like CDDA with probability 100%
------------------------------------------------------------
Processing file: [07. Far And Wee.wav]
------------------------------------------------------------
This track looks like CDDA with probability 100%
------------------------------------------------------------
Processing file: [08. Goat-Footed.wav]
------------------------------------------------------------
This track looks like CDDA with probability 100%
------------------------------------------------------------
Final Conclusion:
------------------------------------------------------------
These tracks looks like CDDA with probability 100%
Доп. информация:
 
Album Info & AAJ Review
Music by Frank Gratkowski (GEMA), Szilard Mezei (SOKOJ), Albert Markos (ARTISJUS) & Martin Blume (GEMA)
Recorded May 3, 2010 at LOFT, Cologne, by Christian Heck
Mixed & mastered by Szilard Mezei
Special thanks to Hans Martin Mueller from the LOFT
Photographs: William de Merchant
Cover design: Marcel Boucher
Executive producer: Michel Passaretti
Free improvisation guarantees the sound of surprise in a way that few other musical strains do. While the primacy of the moment and the players' responses in it and to it are the prime motivations for the music, this will always be the case. This makes the idea of trying to define just what governs the success of the resulting music a slippery notion but, however it might be pinned down, In Just falls very much on the positive side.
That sounds like faint praise, but it would be difficult to try and define just what it is about such intensely inscrutable music that holds the attention, even though it does so with interest. This ensures that the small sounds at the opening of "spring" are compelling in themselves, less the next best thing to silence and more as the result of an understanding of that elusive quality. Szilard Mezel's viola and Albert Markos' cello seem to have the effect of coming together, only to draw apart quickly, as if motivated by mutual distrust.
Despite not immediately follow such title discussions, "goat-footed" could be the other side of the same coin. The strings are again capricious enough to suggest the similarly string-oriented version of the Spontaneous Music Ensemble, before drummer Martin Blumes sounds like a man trying to impose fractious order. As the music progresses Frank Gratkowski, on clarinet, lays claim to territory on the periphery of the music, but such is the primacy of that moment again that the resulting tension is quickly dissipated.
"hop-scotch" suggests something more playful than the reality of the music, at least at first. Gratkowski teases out a meandering line to which Mezel adheres before taking wing, but received notions have only tangential relevance. This is hardly surprising given this music's fearsome individuality.
 
Состав
Frank Gratkowski: alto saxophone, clarinet, bass clarinet
Szilard Mezei: viola
Albert Markos: cello
Martin Blume: drums, percussions
Any questions -> support@pro-jazz.com. По всем вопросам пишите -> support@pro-jazz.com
21:01
185
Нет комментариев. Ваш будет первым!