Вы используете незарегистрированную версию компонента "Вкладки"!

Поиск

(Free Jazz) [CD] Frank Rosaly (Jason Roebke, Jason Stein, Keefe Jackson, James Falzone, Jason Adasiewicz) - Cicada Music - 2013, FLAC (image+.cue), lossless

(Free Jazz) [CD] Frank Rosaly (Jason Roebke, Jason Stein, Keefe Jackson, James Falzone, Jason Adasiewicz) - Cicada Music - 2013, FLAC (image+.cue), lossless
Треклист:
Frank Rosaly / Cicada Music
Жанр: Free Jazz
Носитель: CD
Страна-производитель диска: US
Год издания: 2013
Издатель (лейбл): Delmark Records
Номер по каталогу: DE 5006
Аудиокодек: FLAC (*.flac)
Тип рипа: image+.cue
Битрейт аудио: lossless
Продолжительность: 52:38
Источник (релизер): диск
Наличие сканов в содержимом раздачи: нет
Треклист:
1 The Dark 2:00
2 Wet Feet Splashing 6:02
3 Yards 2:14
4 Babies 5:45
5 Adrian 1:25
6 Driven 8:37
7 Tragically Positive 8:26
8 Bedbugs 1:23
9 Typophile/Apples 12:12
10 Credits 4:55
 
Лог создания рипа
Exact Audio Copy V1.0 beta 2 from 29. April 2011
EAC extraction logfile from 19. December 2013, 15:31
Frank Rosaly / Cicada Music
Used drive : Optiarc DVD RW AD-7170A Adapter: 0 ID: 0
Read mode : Secure
Utilize accurate stream : Yes
Defeat audio cache : Yes
Make use of C2 pointers : No
Read offset correction : 48
Overread into Lead-In and Lead-Out : No
Fill up missing offset samples with silence : Yes
Delete leading and trailing silent blocks : No
Null samples used in CRC calculations : Yes
Used interface : Native Win32 interface for Win NT & 2000
Used output format : User Defined Encoder
Selected bitrate : 320 kBit/s
Quality : High
Add ID3 tag : No
Command line compressor : C:\Program Files\Exact Audio Copy\Flac\flac.exe
Additional command line options : -V -8 -T "Date=%year%" -T "Genre=%genre%" %source%
TOC of the extracted CD
Track | Start | Length | Start sector | End sector
---------------------------------------------------------
1 | 0:00.00 | 1:57.24 | 0 | 8798
2 | 1:57.24 | 5:59.74 | 8799 | 35797
3 | 7:57.23 | 2:12.40 | 35798 | 45737
4 | 10:09.63 | 5:43.66 | 45738 | 71528
5 | 15:53.54 | 1:19.71 | 71529 | 77524
6 | 17:13.50 | 8:33.36 | 77525 | 116035
7 | 25:47.11 | 8:22.10 | 116036 | 153695
8 | 34:09.21 | 1:29.02 | 153696 | 160372
9 | 35:38.23 | 12:09.27 | 160373 | 215074
10 | 47:47.50 | 4:51.02 | 215075 | 236901
Range status and errors
Selected range
Filename K:\ЕАС\Frank Rosaly - Cicada Music.wav
Peak level 97.4 %
Extraction speed 1.9 X
Range quality 100.0 %
Test CRC 7221DFA4
Copy CRC 7221DFA4
Copy OK
No errors occurred
AccurateRip summary
Track 1 accurately ripped (confidence 1) [6F58E81D] (AR v2)
Track 2 accurately ripped (confidence 1) [60270EF0] (AR v2)
Track 3 accurately ripped (confidence 1) [8D4FCF16] (AR v2)
Track 4 accurately ripped (confidence 1) [1B97D2A6] (AR v2)
Track 5 accurately ripped (confidence 1) [D15F555E] (AR v2)
Track 6 accurately ripped (confidence 1) [599D5524] (AR v2)
Track 7 accurately ripped (confidence 1) [8DBEC8AF] (AR v2)
Track 8 accurately ripped (confidence 1) [A85AB3DC] (AR v2)
Track 9 accurately ripped (confidence 1) [AFFB5F56] (AR v2)
Track 10 accurately ripped (confidence 1) [E3D3B97B] (AR v2)
All tracks accurately ripped
End of status report
==== Log checksum 4F934626E15467B920802AC93F429FF50F0B23CB388BFED3298FAC5AC6590212 ====
 
Содержание индексной карты (.CUE)
REM GENRE Jazz
REM DATE 2013
REM DISCID 800C560A
REM COMMENT "ExactAudioCopy v1.0b2"
PERFORMER "Frank Rosaly"
TITLE "Cicada Music"
FILE "Frank Rosaly - Cicada Music.flac" WAVE
TRACK 01 AUDIO
TITLE "The Dark"
PERFORMER "Frank Rosaly"
ISRC 000000000000
INDEX 01 00:00:00
TRACK 02 AUDIO
TITLE "Wet Feet Splashing"
PERFORMER "Frank Rosaly"
ISRC 000000000000
INDEX 01 01:57:24
TRACK 03 AUDIO
TITLE "Yards"
PERFORMER "Frank Rosaly"
ISRC 000000000000
INDEX 01 07:57:23
TRACK 04 AUDIO
TITLE "Babies"
PERFORMER "Frank Rosaly"
ISRC 000000000000
INDEX 01 10:09:63
TRACK 05 AUDIO
TITLE "Adrian"
PERFORMER "Frank Rosaly"
ISRC 000000000000
INDEX 01 15:53:54
TRACK 06 AUDIO
TITLE "Driven"
PERFORMER "Frank Rosaly"
ISRC 000000000000
INDEX 01 17:13:50
TRACK 07 AUDIO
TITLE "Tragically Positive"
PERFORMER "Frank Rosaly"
ISRC 000000000000
INDEX 01 25:47:11
TRACK 08 AUDIO
TITLE "Bedbugs"
PERFORMER "Frank Rosaly"
ISRC 000000000000
INDEX 01 34:09:21
TRACK 09 AUDIO
TITLE "Typophile/Apples"
PERFORMER "Frank Rosaly"
ISRC 000000000000
INDEX 01 35:38:23
TRACK 10 AUDIO
TITLE "Credits"
PERFORMER "Frank Rosaly"
ISRC 000000000000
INDEX 01 47:47:50
 
Об альбоме (сборнике)
"Jazz drummer Frank Rosaly, who has recorded with Delmark artists Nicole Mitchell, Fast Citizens, Josh Berman, Jason Stein and Keefe Jackson, is now coming out with his debut album as leader. Cicada Music is an extension of drummer Rosaly's original soundtrack work from the documentary Scrappers, which follows the life of two Chicago recyclers scouring the alleys for scrap metal. Rosaly's music is a meditation on that struggle, the vast complexity of the urban environment and the beauty of human perseverance. Using some of the leading voices in Chicago's free music scene, these 10 tracks feature James Falzone, Jason Stein, Keefe Jackson,Jason Adasiewicz, Jason Roebke and Frank Rosaly."-Delmark
 
Состав
Bass – Jason Roebke
Bass Clarinet – Jason Stein, Keefe Jackson
Clarinet – James Falzone
Contrabass Clarinet – Keefe Jackson
Cracklebox – Jason Roebke
Drums – Frank Rosaly
Electronics – Frank Rosaly
Percussion – Frank Rosaly
Piano – Frank Rosaly
Tenor Saxophone – Keefe Jackson
Vibraphone – Jason Adasiewicz
Any questions -> support@pro-jazz.com. По всем вопросам пишите -> support@pro-jazz.com
21:39
159
Нет комментариев. Ваш будет первым!