Поиск

(Free Jazz) [CD] Pandelis Karayorgis Quintet (Dave Rempis, Keefe Jackson, Nate McBride, Frank Rosaly) - Circuitous - 2013, FLAC (image+.cue), lossless

(Free Jazz) [CD] Pandelis Karayorgis Quintet (Dave Rempis, Keefe Jackson, Nate McBride, Frank Rosaly) - Circuitous - 2013, FLAC (image+.cue), lossless
Треклист:
Pandelis Karayorgis Quintet / Circuitous
Жанр: Free Jazz
Носитель: CD
Страна-производитель диска: US
Год издания: 2013
Издатель (лейбл): Driff Records
Номер по каталогу: 1304
Аудиокодек: FLAC (*.flac)
Тип рипа: image+.cue
Битрейт аудио: lossless
Продолжительность: 61:08
Источник (релизер): диск
Наличие сканов в содержимом раздачи: нет
Треклист:
1. Undertow 6:04
2. Nudge 6:29
3. Swarm 9:33
4. Circuitous 5:28
5. Vortex 8:51
6. Evenfall 4:34
7. Blue Line 9:15
8. Here In July 5:17
9. Souvenir 5:25
 
Лог создания рипа
Exact Audio Copy V1.0 beta 2 from 29. April 2011
EAC extraction logfile from 18. December 2013, 11:11
Pandelis Karayorgis Quintet / Circuitous
Used drive : Optiarc DVD RW AD-7170A Adapter: 0 ID: 0
Read mode : Secure
Utilize accurate stream : Yes
Defeat audio cache : Yes
Make use of C2 pointers : No
Read offset correction : 48
Overread into Lead-In and Lead-Out : No
Fill up missing offset samples with silence : Yes
Delete leading and trailing silent blocks : No
Null samples used in CRC calculations : Yes
Used interface : Native Win32 interface for Win NT & 2000
Used output format : User Defined Encoder
Selected bitrate : 320 kBit/s
Quality : High
Add ID3 tag : No
Command line compressor : C:\Program Files\Exact Audio Copy\Flac\flac.exe
Additional command line options : -V -8 -T "Date=%year%" -T "Genre=%genre%" %source%
TOC of the extracted CD
Track | Start | Length | Start sector | End sector
---------------------------------------------------------
1 | 0:00.00 | 6:03.54 | 0 | 27278
2 | 6:03.54 | 6:30.06 | 27279 | 56534
3 | 12:33.60 | 9:37.07 | 56535 | 99816
4 | 22:10.67 | 5:30.27 | 99817 | 124593
5 | 27:41.19 | 8:51.73 | 124594 | 164491
6 | 36:33.17 | 4:36.21 | 164492 | 185212
7 | 41:09.38 | 9:14.71 | 185213 | 226833
8 | 50:24.34 | 5:18.18 | 226834 | 250701
9 | 55:42.52 | 5:26.06 | 250702 | 275157
Range status and errors
Selected range
Filename K:\ЕАС\Pandelis Karayorgis Quintet - Circuitous.wav
Peak level 96.4 %
Extraction speed 2.0 X
Range quality 100.0 %
Test CRC 8A861FA8
Copy CRC 8A861FA8
Copy OK
No errors occurred
AccurateRip summary
Track 1 not present in database
Track 2 not present in database
Track 3 not present in database
Track 4 not present in database
Track 5 not present in database
Track 6 not present in database
Track 7 not present in database
Track 8 not present in database
Track 9 not present in database
None of the tracks are present in the AccurateRip database
End of status report
==== Log checksum BA4A0B9FD745282CB43F4DE52DAB801A340072ACAEBDAA306597BF38F5A0CAAC ====
 
Содержание индексной карты (.CUE)
REM GENRE Jazz
REM DATE 2013
REM DISCID 720E5409
REM COMMENT "ExactAudioCopy v1.0b2"
PERFORMER "Pandelis Karayorgis Quintet"
TITLE "Circuitous"
FILE "Pandelis Karayorgis Quintet - Circuitous.flac" WAVE
TRACK 01 AUDIO
TITLE "Undertow"
PERFORMER "Pandelis Karayorgis Quintet"
ISRC 000000000000
FLAGS DCP
INDEX 01 00:00:00
TRACK 02 AUDIO
TITLE "Nudge"
PERFORMER "Pandelis Karayorgis Quintet"
ISRC 000000000000
FLAGS DCP
INDEX 01 06:03:54
TRACK 03 AUDIO
TITLE "Swarm"
PERFORMER "Pandelis Karayorgis Quintet"
ISRC 000000000000
FLAGS DCP
INDEX 01 12:33:60
TRACK 04 AUDIO
TITLE "Circuitous"
PERFORMER "Pandelis Karayorgis Quintet"
ISRC 000000000000
FLAGS DCP
INDEX 01 22:10:67
TRACK 05 AUDIO
TITLE "Vortex"
PERFORMER "Pandelis Karayorgis Quintet"
ISRC 000000000000
FLAGS DCP
INDEX 01 27:41:19
TRACK 06 AUDIO
TITLE "Evenfall"
PERFORMER "Pandelis Karayorgis Quintet"
ISRC 000000000000
FLAGS DCP
INDEX 01 36:33:17
TRACK 07 AUDIO
TITLE "Blue Line"
PERFORMER "Pandelis Karayorgis Quintet"
ISRC 000000000000
FLAGS DCP
INDEX 01 41:09:38
TRACK 08 AUDIO
TITLE "Here In July"
PERFORMER "Pandelis Karayorgis Quintet"
ISRC 000000000000
FLAGS DCP
INDEX 01 50:24:34
TRACK 09 AUDIO
TITLE "Souvenir"
PERFORMER "Pandelis Karayorgis Quintet"
ISRC 000000000000
FLAGS DCP
INDEX 01 55:42:52
 
Об альбоме (сборнике)
“Karayorgis and the quintet succeed brilliantly here in creating music that both reverberates with the tradition and creates its own extraordinary musical states—textures, visions and collisions that are unique, that could not be produced by any other group or any singular method.”
Stuart Broomer (from the liner notes)
 
Состав
Dave Rempis alto, tenor and baritone sax
Keefe Jackson, tenor sax, bass and contrabass clarinets
Pandelis Karayorgis, piano
Nate McBride, bass
Frank Rosaly, drums
По всем вопросам пишите личное сообщение пользователю M0p94ok.
21:38
157
Нет комментариев. Ваш будет первым!