Вы используете незарегистрированную версию компонента "Вкладки"!

Поиск

(Free Improvisation) [CD] Didier Petit (Daunik Lazro, Denis Colin, Michael Nick) - NOHC On The Road - 2000, FLAC (image+.cue), lossless

(Free Improvisation) [CD] Didier Petit (Daunik Lazro, Denis Colin, Michael Nick) - NOHC On The Road - 2000, FLAC (image+.cue), lossless
Треклист:
Didier Petit / NOHC On The Road
Жанр: Free Improvisation
Носитель: CD
Страна-производитель диска: UK
Год издания: 2000
Издатель (лейбл): Leo Lab
Номер по каталогу: CD 065
Аудиокодек: FLAC (*.flac)
Тип рипа: image+.cue
Битрейт аудио: lossless
Продолжительность: 64:58
Источник (релизер): диск
Наличие сканов в содержимом раздачи: нет
Треклист:
First Suite:
1 The Progressive Slide Into Pleasure 6:27
2 Russian-techno 2:59
3 At Home 4:17
Second Suite:
4 Big Crunch At Tibet 10:56
5 The Missing Mass 2:59
6 One Per M3 2:55
7 Matter - Antimatter 7:16
Third Suite:
8 Annabelle 2:41
9 Entropie 1:23
10 That's Where It Started 13:02
 
Лог создания рипа
Exact Audio Copy V1.0 beta 2 from 29. April 2011
EAC extraction logfile from 20. December 2013, 11:49
Didier Petit / NOHC on the Road
Used drive : Optiarc DVD RW AD-7170A Adapter: 0 ID: 0
Read mode : Secure
Utilize accurate stream : Yes
Defeat audio cache : Yes
Make use of C2 pointers : No
Read offset correction : 48
Overread into Lead-In and Lead-Out : No
Fill up missing offset samples with silence : Yes
Delete leading and trailing silent blocks : No
Null samples used in CRC calculations : Yes
Used interface : Native Win32 interface for Win NT & 2000
Used output format : User Defined Encoder
Selected bitrate : 320 kBit/s
Quality : High
Add ID3 tag : No
Command line compressor : C:\Program Files\Exact Audio Copy\Flac\flac.exe
Additional command line options : -V -8 -T "Date=%year%" -T "Genre=%genre%" %source%
TOC of the extracted CD
Track | Start | Length | Start sector | End sector
---------------------------------------------------------
1 | 0:00.00 | 6:27.21 | 0 | 29045
2 | 6:27.21 | 2:59.27 | 29046 | 42497
3 | 9:26.48 | 4:17.20 | 42498 | 61792
4 | 13:43.68 | 10:56.23 | 61793 | 111015
5 | 24:40.16 | 2:58.69 | 111016 | 124434
6 | 27:39.10 | 2:54.56 | 124435 | 137540
7 | 30:33.66 | 7:16.12 | 137541 | 170252
8 | 37:50.03 | 2:41.66 | 170253 | 182393
9 | 40:31.69 | 1:23.37 | 182394 | 188655
10 | 41:55.31 | 13:02.49 | 188656 | 247354
Range status and errors
Selected range
Filename K:\ЕАС\Didier Petit - NOHC on the Road.wav
Peak level 99.7 %
Extraction speed 2.0 X
Range quality 99.9 %
Test CRC 1A1CE246
Copy CRC 1A1CE246
Copy OK
No errors occurred
AccurateRip summary
Track 1 accurately ripped (confidence 1) [34BA8472] (AR v2)
Track 2 accurately ripped (confidence 1) [16738B48] (AR v2)
Track 3 accurately ripped (confidence 1) [58062C38] (AR v2)
Track 4 accurately ripped (confidence 1) [B4AE4878] (AR v2)
Track 5 accurately ripped (confidence 1) [34E5F9DD] (AR v2)
Track 6 accurately ripped (confidence 1) [2B32EBF8] (AR v2)
Track 7 accurately ripped (confidence 1) [1FC15C2F] (AR v2)
Track 8 accurately ripped (confidence 1) [1DCB681C] (AR v2)
Track 9 accurately ripped (confidence 1) [89E7FF7C] (AR v2)
Track 10 accurately ripped (confidence 1) [54AFD84B] (AR v2)
All tracks accurately ripped
End of status report
==== Log checksum 9E18A9C4D4F74BA79CEDEEAD95AF8DBE7A014D4740E3822A53355D6DB5DF30F2 ====
 
Содержание индексной карты (.CUE)
REM GENRE "Avant Garde"
REM DATE 2000
REM DISCID 8E0CE20A
REM COMMENT "ExactAudioCopy v1.0b2"
CATALOG 0000000000000
PERFORMER "Didier Petit"
TITLE "NOHC on the Road"
FILE "Didier Petit - NOHC on the Road.flac" WAVE
TRACK 01 AUDIO
TITLE "the progressive side into pleasure"
PERFORMER "Didier Petit"
ISRC 000000000000
FLAGS DCP
INDEX 01 00:00:00
TRACK 02 AUDIO
TITLE "russian-techno"
PERFORMER "Didier Petit"
ISRC 000000000000
FLAGS DCP
INDEX 01 06:27:21
TRACK 03 AUDIO
TITLE "at home"
PERFORMER "Didier Petit"
ISRC 000000000000
FLAGS DCP
INDEX 01 09:26:48
TRACK 04 AUDIO
TITLE "big crunch at tibet"
PERFORMER "Didier Petit"
ISRC 000000000000
FLAGS DCP
INDEX 01 13:43:68
TRACK 05 AUDIO
TITLE "the missing mass"
PERFORMER "Didier Petit"
ISRC 000000000000
FLAGS DCP
INDEX 01 24:40:16
TRACK 06 AUDIO
TITLE "one per m3"
PERFORMER "Didier Petit"
ISRC 000000000000
FLAGS DCP
INDEX 01 27:39:10
TRACK 07 AUDIO
TITLE "matter - animatter"
PERFORMER "Didier Petit"
ISRC 000000000000
FLAGS DCP
INDEX 01 30:33:66
TRACK 08 AUDIO
TITLE "annabelle"
PERFORMER "Didier Petit"
ISRC 000000000000
FLAGS DCP
INDEX 01 37:50:03
TRACK 09 AUDIO
TITLE "entropie"
PERFORMER "Didier Petit"
ISRC 000000000000
FLAGS DCP
INDEX 01 40:31:69
TRACK 10 AUDIO
TITLE "that's where it started"
PERFORMER "Didier Petit"
ISRC 000000000000
FLAGS DCP
INDEX 01 41:55:31
Доп. информация: Recording dates: 1999
 
Состав
Alto Saxophone, Baritone Saxophone – Daunik Lazro
Bass Clarinet – Denis Colin
Cello, Voice – Didier Petit
Violin – Michael Nick
Any questions -> support@pro-jazz.com. По всем вопросам пишите -> support@pro-jazz.com
21:39
159
Нет комментариев. Ваш будет первым!