Вы используете незарегистрированную версию компонента "Вкладки"!

Поиск

(free jazz) [cd] Evan Parker - Synergetics - Phonomanie III (1996) [2CD] {Leo Records}, FLAC (tracks+.cue), lossless

(free jazz) [cd] Evan Parker - Synergetics - Phonomanie III (1996) [2CD] {Leo Records}, FLAC (tracks+.cue), lossless
Треклист:
(free jazz) [cd] Evan Parker - Synergetics - Phonomanie III (1996) [2CD] {Leo Records}, FLAC (tracks+.cue), lossless


Evan Parker - Synergetics - Phonomanie III (1996) [2CD] {Leo Records}

Жанр:free jazz
Год выпуска: 1996
Издатель (лейбл):Leo Records / CD LR 239/40
Формат: FLAC (tracks+.cue)
Битрейт аудио: lossless
Продолжительность: 2`29`05
Источник: avxhome
Recorded: 1993/09/18, 19 live at Jazzatelier Ulrichsberg in Ulrichsberg, Austria
Personnel:
Bass, Voice – Motoharu Yoshizawa
Electronics – Marco "Bill" Vecchi*, Walter Prati
Geomungo [Komungo] – Jin Hi Kim
Percussion, Performer [Imbumbu] – Thebe Lipere
Performer [Launeddas] – Carlo Mariani
Producer – Evan Parker, Leo Feigin
Recorded By – Friedrich Switil
Saxophone – Evan Parker
Trombone, Computer – George Lewis
Voice – Sainkho Namchylak*
Recorded: 1993/09/18, 19 live at Jazzatelier Ulrichsberg in Ulrichsberg, Austria
 
cd 1



Synergetics, No. 1 -9

 
.log
Exact Audio Copy V1.0 beta 3 from 29. August 2011
EAC extraction logfile from 1. June 2014, 12:59
Evan Parker / Synergetics: Phonomanie III CD 1
Used drive : hp DVD A DS8A4LH Adapter: 0 ID: 0
Read mode : Secure
Utilize accurate stream : Yes
Defeat audio cache : Yes
Make use of C2 pointers : No
Read offset correction : 6
Overread into Lead-In and Lead-Out : No
Fill up missing offset samples with silence : Yes
Delete leading and trailing silent blocks : No
Null samples used in CRC calculations : Yes
Used interface : Native Win32 interface for Win NT & 2000
Gap handling : Appended to previous track
Used output format : User Defined Encoder
Selected bitrate : 768 kBit/s
Quality : High
Add ID3 tag : No
Command line compressor : C:\Program Files (x86)\Exact Audio Copy\FLAC\FLAC.EXE
Additional command line options : -8 -V -T "ARTIST=%artist%" -T "TITLE=%title%" -T "ALBUM=%albumtitle%" -T "DATE=%year%" -T "TRACKNUMBER=%tracknr%" -T "TOTALTRACKS=%numtracks%" -T "GENRE=%genre%" -T "ALBUMARTIST=%albumartist%" -T "ALBUM ARTIST=%albumartist%" -T "COMMENT=EAC Secure Mode, Test & Copy, AccurateRip, FLAC -8" %source%
TOC of the extracted CD
Track | Start | Length | Start sector | End sector
---------------------------------------------------------
1 | 0:00.00 | 24:10.55 | 0 | 108804
2 | 24:10.55 | 5:01.07 | 108805 | 131386
3 | 29:11.62 | 6:43.40 | 131387 | 161651
4 | 35:55.27 | 6:30.33 | 161652 | 190934
5 | 42:25.60 | 7:20.12 | 190935 | 223946
6 | 49:45.72 | 7:45.40 | 223947 | 258861
7 | 57:31.37 | 2:19.03 | 258862 | 269289
8 | 59:50.40 | 4:00.37 | 269290 | 287326
9 | 63:51.02 | 7:36.15 | 287327 | 321541
Track 1
Filename D:\Parker\01 - Synergetics, No. 1.wav
Pre-gap length 0:00:02.00
Peak level 70.1 %
Extraction speed 1.6 X
Track quality 100.0 %
Test CRC D52F5CEA
Copy CRC D52F5CEA
Accurately ripped (confidence 1) [7A8F0C6E] (AR v2)
Copy OK
Track 2
Filename D:\Parker\02 - Synergetics, No. 2.wav
Pre-gap length 0:00:05.02
Peak level 58.8 %
Extraction speed 1.6 X
Track quality 99.9 %
Test CRC AF5F83F9
Copy CRC AF5F83F9
Accurately ripped (confidence 1) [D18A4BA0] (AR v2)
Copy OK
Track 3
Filename D:\Parker\03 - Synergetics, No. 3.wav
Pre-gap length 0:00:06.44
Peak level 92.4 %
Extraction speed 2.0 X
Track quality 100.0 %
Test CRC D8761F5B
Copy CRC D8761F5B
Accurately ripped (confidence 1) [47A05714] (AR v2)
Copy OK
Track 4
Filename D:\Parker\04 - Synergetics, No. 4.wav
Pre-gap length 0:00:05.47
Peak level 56.4 %
Extraction speed 2.0 X
Track quality 99.9 %
Test CRC 466A1F34
Copy CRC 466A1F34
Accurately ripped (confidence 1) [CD19234F] (AR v2)
Copy OK
Track 5
Filename D:\Parker\05 - Synergetics, No. 5.wav
Pre-gap length 0:00:05.27
Peak level 88.0 %
Extraction speed 2.3 X
Track quality 100.0 %
Test CRC DB22386B
Copy CRC DB22386B
Accurately ripped (confidence 1) [FEF29593] (AR v2)
Copy OK
Track 6
Filename D:\Parker\06 - Synergetics, No. 6.wav
Pre-gap length 0:00:05.09
Peak level 100.0 %
Extraction speed 2.4 X
Track quality 100.0 %
Test CRC 861CDEF2
Copy CRC 861CDEF2
Accurately ripped (confidence 1) [53089AE3] (AR v2)
Copy OK
Track 7
Filename D:\Parker\07 - Synergetics, No. 7.wav
Pre-gap length 0:00:06.39
Peak level 40.7 %
Extraction speed 2.1 X
Track quality 100.0 %
Test CRC 02E217DD
Copy CRC 02E217DD
Accurately ripped (confidence 1) [F2F5ED0E] (AR v2)
Copy OK
Track 8
Filename D:\Parker\08 - Synergetics, No. 8.wav
Pre-gap length 0:00:00.02
Peak level 82.3 %
Extraction speed 2.4 X
Track quality 100.0 %
Test CRC 5DF01C6B
Copy CRC 5DF01C6B
Accurately ripped (confidence 1) [D9BF2C9E] (AR v2)
Copy OK
Track 9
Filename D:\Parker\09 - Synergetics, No. 9.wav
Pre-gap length 0:00:06.52
Peak level 97.0 %
Extraction speed 2.4 X
Track quality 99.9 %
Test CRC 071B3367
Copy CRC 071B3367
Accurately ripped (confidence 1) [5CF8DF43] (AR v2)
Copy OK
All tracks accurately ripped
No errors occurred
End of status report
---- CUETools DB Plugin V2.1.3
[CTDB TOCID: nTBaZSWEw8lVyLF3g7BRju0pEvY-] disk not present in database, Submit result: nTBaZSWEw8lVyLF3g7BRju0pEvY- has been uploaded
==== Log checksum 57F7F53D39A71773EC942FEC8E09C48A63377CE3377DBFDF7CFAB426C0792505 ====
 
.cue
REM GENRE Jazz
REM DATE 1996
REM DISCID 8C10BF09
REM COMMENT "ExactAudioCopy v1.0b3"
PERFORMER "Evan Parker"
TITLE "Synergetics: Phonomanie III CD 1"
FILE "01 - Synergetics, No. 1.wav" WAVE
TRACK 01 AUDIO
TITLE "Synergetics, No. 1"
PERFORMER "Evan Parker"
INDEX 01 00:00:00
TRACK 02 AUDIO
TITLE "Synergetics, No. 2"
PERFORMER "Evan Parker"
INDEX 00 24:05:53
FILE "02 - Synergetics, No. 2.wav" WAVE
INDEX 01 00:00:00
TRACK 03 AUDIO
TITLE "Synergetics, No. 3"
PERFORMER "Evan Parker"
INDEX 00 04:54:38
FILE "03 - Synergetics, No. 3.wav" WAVE
INDEX 01 00:00:00
TRACK 04 AUDIO
TITLE "Synergetics, No. 4"
PERFORMER "Evan Parker"
INDEX 00 06:37:68
FILE "04 - Synergetics, No. 4.wav" WAVE
INDEX 01 00:00:00
TRACK 05 AUDIO
TITLE "Synergetics, No. 5"
PERFORMER "Evan Parker"
INDEX 00 06:25:06
FILE "05 - Synergetics, No. 5.wav" WAVE
INDEX 01 00:00:00
TRACK 06 AUDIO
TITLE "Synergetics, No. 6"
PERFORMER "Evan Parker"
INDEX 00 07:15:03
FILE "06 - Synergetics, No. 6.wav" WAVE
INDEX 01 00:00:00
TRACK 07 AUDIO
TITLE "Synergetics, No. 7"
PERFORMER "Evan Parker"
INDEX 00 07:39:01
FILE "07 - Synergetics, No. 7.wav" WAVE
INDEX 01 00:00:00
TRACK 08 AUDIO
TITLE "Synergetics, No. 8"
PERFORMER "Evan Parker"
INDEX 00 02:19:01
FILE "08 - Synergetics, No. 8.wav" WAVE
INDEX 01 00:00:00
TRACK 09 AUDIO
TITLE "Synergetics, No. 9"
PERFORMER "Evan Parker"
INDEX 00 03:53:60
FILE "09 - Synergetics, No. 9.wav" WAVE
INDEX 01 00:00:00
 
cd 2



Synergetics, No. 10 -19

 
.log
Exact Audio Copy V1.0 beta 3 from 29. August 2011
EAC extraction logfile from 1. June 2014, 16:53
Evan Parker / Synergetics: Phonomanie III
Used drive : hp DVD A DS8A4LH Adapter: 0 ID: 0
Read mode : Secure
Utilize accurate stream : Yes
Defeat audio cache : Yes
Make use of C2 pointers : No
Read offset correction : 6
Overread into Lead-In and Lead-Out : No
Fill up missing offset samples with silence : Yes
Delete leading and trailing silent blocks : No
Null samples used in CRC calculations : Yes
Used interface : Native Win32 interface for Win NT & 2000
Gap handling : Appended to previous track
Used output format : User Defined Encoder
Selected bitrate : 768 kBit/s
Quality : High
Add ID3 tag : No
Command line compressor : C:\Program Files (x86)\Exact Audio Copy\FLAC\FLAC.EXE
Additional command line options : -8 -V -T "ARTIST=%artist%" -T "TITLE=%title%" -T "ALBUM=%albumtitle%" -T "DATE=%year%" -T "TRACKNUMBER=%tracknr%" -T "TOTALTRACKS=%numtracks%" -T "GENRE=%genre%" -T "ALBUMARTIST=%albumartist%" -T "ALBUM ARTIST=%albumartist%" -T "COMMENT=EAC Secure Mode, Test & Copy, AccurateRip, FLAC -8" %source%
TOC of the extracted CD
Track | Start | Length | Start sector | End sector
---------------------------------------------------------
1 | 0:00.00 | 6:23.52 | 0 | 28776
2 | 6:23.52 | 4:49.03 | 28777 | 50454
3 | 11:12.55 | 7:45.55 | 50455 | 85384
4 | 18:58.35 | 6:28.55 | 85385 | 114539
5 | 25:27.15 | 5:34.62 | 114540 | 139651
6 | 31:02.02 | 6:53.68 | 139652 | 170694
7 | 37:55.70 | 8:42.50 | 170695 | 209894
8 | 46:38.45 | 6:34.55 | 209895 | 239499
9 | 53:13.25 | 7:29.67 | 239500 | 273241
10 | 60:43.17 | 17:24.28 | 273242 | 351569
Track 1
Filename D:\Parker\01 - Synergetics, No. 10.wav
Pre-gap length 0:00:02.00
Peak level 90.3 %
Extraction speed 3.2 X
Track quality 100.0 %
Test CRC D205290B
Copy CRC D205290B
Accurately ripped (confidence 1) [90B8FEA4] (AR v2)
Copy OK
Track 2
Filename D:\Parker\02 - Synergetics, No. 11.wav
Pre-gap length 0:00:04.47
Peak level 76.6 %
Extraction speed 3.5 X
Track quality 100.0 %
Test CRC 1823A07B
Copy CRC 1823A07B
Accurately ripped (confidence 1) [6216941E] (AR v2)
Copy OK
Track 3
Filename D:\Parker\03 - Synergetics, No. 12.wav
Pre-gap length 0:00:05.65
Peak level 73.3 %
Extraction speed 4.0 X
Track quality 100.0 %
Test CRC 93826343
Copy CRC 93826343
Accurately ripped (confidence 1) [4E4D3FEB] (AR v2)
Copy OK
Track 4
Filename D:\Parker\04 - Synergetics, No. 13.wav
Pre-gap length 0:00:07.25
Peak level 37.5 %
Extraction speed 3.8 X
Track quality 99.9 %
Test CRC 2360200E
Copy CRC 2360200E
Accurately ripped (confidence 1) [847BF1D0] (AR v2)
Copy OK
Track 5
Filename D:\Parker\05 - Synergetics, No. 14.wav
Peak level 75.3 %
Extraction speed 4.5 X
Track quality 100.0 %
Test CRC 5B8AB144
Copy CRC 5B8AB144
Accurately ripped (confidence 1) [642C4553] (AR v2)
Copy OK
Track 6
Filename D:\Parker\06 - Synergetics, No. 15.wav
Pre-gap length 0:00:06.32
Peak level 82.7 %
Extraction speed 4.9 X
Track quality 100.0 %
Test CRC EE405E8F
Copy CRC EE405E8F
Accurately ripped (confidence 1) [889980B9] (AR v2)
Copy OK
Track 7
Filename D:\Parker\07 - Synergetics, No. 16.wav
Pre-gap length 0:00:06.33
Peak level 99.6 %
Extraction speed 5.3 X
Track quality 100.0 %
Test CRC D15E5B76
Copy CRC D15E5B76
Accurately ripped (confidence 1) [948DBBB3] (AR v2)
Copy OK
Track 8
Filename D:\Parker\08 - Synergetics, No. 17.wav
Pre-gap length 0:00:06.38
Peak level 28.6 %
Extraction speed 4.9 X
Track quality 99.9 %
Test CRC 2BAC3F20
Copy CRC 2BAC3F20
Accurately ripped (confidence 1) [FA97B80C] (AR v2)
Copy OK
Track 9
Filename D:\Parker\09 - Synergetics, No. 18.wav
Pre-gap length 0:00:04.40
Peak level 47.9 %
Extraction speed 5.8 X
Track quality 100.0 %
Test CRC 64C8383E
Copy CRC 64C8383E
Accurately ripped (confidence 1) [20E0DFDA] (AR v2)
Copy OK
Track 10
Filename D:\Parker\10 - Synergetics, No. 19.wav
Pre-gap length 0:00:05.27
Peak level 93.3 %
Extraction speed 6.5 X
Track quality 100.0 %
Test CRC 6CF3F5BF
Copy CRC 6CF3F5BF
Accurately ripped (confidence 1) [372DB65E] (AR v2)
Copy OK
All tracks accurately ripped
No errors occurred
End of status report
---- CUETools DB Plugin V2.1.3
[CTDB TOCID: 4Utcu0ThBr80sRhf.d0rfOwbAuw-] disk not present in database, Submit result: 4Utcu0ThBr80sRhf.d0rfOwbAuw- has been uploaded
==== Log checksum 35DA0125D64303392B250163BF8F8E52757DB5FADD8DDB03C5BFC230DBBBC1C5 ====
 
.cue
REM GENRE Avantgarde
REM DATE 2000
REM DISCID 8D124F0A
REM COMMENT "ExactAudioCopy v1.0b3"
PERFORMER "Evan Parker"
TITLE "Synergetics: Phonomanie III"
FILE "01 - Synergetics, No. 10.wav" WAVE
TRACK 01 AUDIO
TITLE "Synergetics, No. 10"
PERFORMER "Evan Parker"
INDEX 01 00:00:00
TRACK 02 AUDIO
TITLE "Synergetics, No. 11"
PERFORMER "Evan Parker"
INDEX 00 06:19:05
FILE "02 - Synergetics, No. 11.wav" WAVE
INDEX 01 00:00:00
TRACK 03 AUDIO
TITLE "Synergetics, No. 12"
PERFORMER "Evan Parker"
INDEX 00 04:43:13
FILE "03 - Synergetics, No. 12.wav" WAVE
INDEX 01 00:00:00
TRACK 04 AUDIO
TITLE "Synergetics, No. 13"
PERFORMER "Evan Parker"
INDEX 00 07:38:30
FILE "04 - Synergetics, No. 13.wav" WAVE
INDEX 01 00:00:00
FILE "05 - Synergetics, No. 14.wav" WAVE
TRACK 05 AUDIO
TITLE "Synergetics, No. 14"
PERFORMER "Evan Parker"
INDEX 01 00:00:00
TRACK 06 AUDIO
TITLE "Synergetics, No. 15"
PERFORMER "Evan Parker"
INDEX 00 05:28:30
FILE "06 - Synergetics, No. 15.wav" WAVE
INDEX 01 00:00:00
TRACK 07 AUDIO
TITLE "Synergetics, No. 16"
PERFORMER "Evan Parker"
INDEX 00 06:47:35
FILE "07 - Synergetics, No. 16.wav" WAVE
INDEX 01 00:00:00
TRACK 08 AUDIO
TITLE "Synergetics, No. 17"
PERFORMER "Evan Parker"
INDEX 00 08:36:12
FILE "08 - Synergetics, No. 17.wav" WAVE
INDEX 01 00:00:00
TRACK 09 AUDIO
TITLE "Synergetics, No. 18"
PERFORMER "Evan Parker"
INDEX 00 06:30:15
FILE "09 - Synergetics, No. 18.wav" WAVE
INDEX 01 00:00:00
TRACK 10 AUDIO
TITLE "Synergetics, No. 19"
PERFORMER "Evan Parker"
INDEX 00 07:24:40
FILE "10 - Synergetics, No. 19.wav" WAVE
INDEX 01 00:00:00
другие релизы
По всем вопросам пишите личное сообщение пользователю M0p94ok.
14:51
164
Нет комментариев. Ваш будет первым!