Вы используете незарегистрированную версию компонента "Вкладки"!

Поиск

(Free Improvisation, Avantgarde) [CD] Exias-J Electric Conception - Balance Of Chaos - 2004, FLAC (tracks+.cue), lossless

(Free Improvisation, Avantgarde) [CD] Exias-J Electric Conception - Balance Of Chaos - 2004, FLAC (tracks+.cue), lossless
Треклист:
EXIAS-J electric conception / balance of chaos
Жанр: Free Improvisation, Avantgarde
Носитель: CD
Страна-производитель диска (релиза): Japan
Год издания: 2004
Издатель (лейбл): P.S.F. Records
Номер по каталогу: PSFD-154
Страна исполнителя (группы): Japan
Аудиокодек: FLAC (*.flac)
Тип рипа: tracks+.cue
Битрейт аудио: lossless
Продолжительность: 1:09:55
Источник (релизер): рип собственный
Наличие сканов в содержимом раздачи: да
Треклист:
1. Perceptual Expectation 20:09
2. Broadening Distribution: Invertion 9:32
3. Palestine 4:12
4. Elliptic Umbric 11:43
5. Eugine's Second Book 17:07
6. Sanctimonious Malice 7:12
 
Лог создания рипа
Exact Audio Copy V1.0 beta 3 from 29. August 2011
EAC extraction logfile from 31. July 2015, 11:10
Exias-J electric conception / Balance Of Chaos
Used drive : PIONEER BD-RW BDR-208M Adapter: 0 ID: 1
Read mode : Secure
Utilize accurate stream : Yes
Defeat audio cache : Yes
Make use of C2 pointers : No
Read offset correction : 667
Overread into Lead-In and Lead-Out : No
Fill up missing offset samples with silence : Yes
Delete leading and trailing silent blocks : No
Null samples used in CRC calculations : Yes
Used interface : Native Win32 interface for Win NT & 2000
Gap handling : Appended to previous track
Used output format : Internal WAV Routines
Sample format : 44.100 Hz; 16 Bit; Stereo
TOC of the extracted CD
Track | Start | Length | Start sector | End sector
---------------------------------------------------------
1 | 0:00.00 | 20:08.67 | 0 | 90666
2 | 20:08.67 | 9:32.00 | 90667 | 133566
3 | 29:40.67 | 4:12.00 | 133567 | 152466
4 | 33:52.67 | 11:43.09 | 152467 | 205200
5 | 45:36.01 | 17:07.14 | 205201 | 282239
6 | 62:43.15 | 7:12.00 | 282240 | 314639
Track 1
Filename C:\Sounds\Exias-J electric conception - Balance Of Chaos (2004)[FLAC]\01 - Perceptual Expectation.wav
Pre-gap length 0:00:02.00
Peak level 70.0 %
Extraction speed 6.2 X
Track quality 100.0 %
Test CRC 6805707B
Copy CRC 6805707B
Accurately ripped (confidence 2) [883544A4] (AR v1)
Copy OK
Track 2
Filename C:\Sounds\Exias-J electric conception - Balance Of Chaos (2004)[FLAC]\02 - Broadening Distribution - Invertion.wav
Pre-gap length 0:00:03.00
Peak level 100.0 %
Extraction speed 7.0 X
Track quality 99.9 %
Test CRC F9278DC1
Copy CRC F9278DC1
Accurately ripped (confidence 2) [477003AA] (AR v1)
Copy OK
Track 3
Filename C:\Sounds\Exias-J electric conception - Balance Of Chaos (2004)[FLAC]\03 - Palestine.wav
Pre-gap length 0:00:04.00
Peak level 100.0 %
Extraction speed 6.4 X
Track quality 99.9 %
Test CRC 60A99F31
Copy CRC 60A99F31
Accurately ripped (confidence 2) [3DA55ACB] (AR v1)
Copy OK
Track 4
Filename C:\Sounds\Exias-J electric conception - Balance Of Chaos (2004)[FLAC]\04 - Elliptic Umbric.wav
Pre-gap length 0:00:02.00
Peak level 96.9 %
Extraction speed 8.4 X
Track quality 100.0 %
Test CRC 5619288B
Copy CRC 5619288B
Accurately ripped (confidence 2) [E2BABF0D] (AR v1)
Copy OK
Track 5
Filename C:\Sounds\Exias-J electric conception - Balance Of Chaos (2004)[FLAC]\05 - Eugene's Second Book.wav
Pre-gap length 0:00:02.00
Peak level 70.7 %
Extraction speed 9.0 X
Track quality 99.9 %
Test CRC E8739042
Copy CRC E8739042
Accurately ripped (confidence 2) [E880D0A1] (AR v1)
Copy OK
Track 6
Filename C:\Sounds\Exias-J electric conception - Balance Of Chaos (2004)[FLAC]\06 - Sanctimonius Malice.wav
Pre-gap length 0:00:06.00
Peak level 100.0 %
Extraction speed 9.5 X
Track quality 100.0 %
Test CRC 0B22A4F8
Copy CRC 0B22A4F8
Accurately ripped (confidence 2) [63CE3AB7] (AR v1)
Copy OK
All tracks accurately ripped
No errors occurred
End of status report
==== Log checksum B2BCF437E7D8CEC12EF6CC807AAE2AFCBACE3D05542160CC18A4B9502E07A273 ====
 
Содержание индексной карты (.CUE)
REM GENRE Avantgarde
REM DATE 2004
REM DISCID 4A106306
REM COMMENT "ExactAudioCopy v1.0b3"
PERFORMER "Exias-J electric conception"
TITLE "Balance Of Chaos"
FILE "01 - Perceptual Expectation.wav" WAVE
TRACK 01 AUDIO
TITLE "Perceptual Expectation"
PERFORMER "Exias-J electric conception"
INDEX 01 00:00:00
TRACK 02 AUDIO
TITLE "Broadening Distribution - Invertion"
PERFORMER "Exias-J electric conception"
INDEX 00 20:05:67
FILE "02 - Broadening Distribution - Invertion.wav" WAVE
INDEX 01 00:00:00
TRACK 03 AUDIO
TITLE "Palestine"
PERFORMER "Exias-J electric conception"
INDEX 00 09:28:00
FILE "03 - Palestine.wav" WAVE
INDEX 01 00:00:00
TRACK 04 AUDIO
TITLE "Elliptic Umbric"
PERFORMER "Exias-J electric conception"
INDEX 00 04:10:00
FILE "04 - Elliptic Umbric.wav" WAVE
INDEX 01 00:00:00
TRACK 05 AUDIO
TITLE "Eugene's Second Book"
PERFORMER "Exias-J electric conception"
INDEX 00 11:41:09
FILE "05 - Eugene's Second Book.wav" WAVE
INDEX 01 00:00:00
TRACK 06 AUDIO
TITLE "Sanctimonius Malice"
PERFORMER "Exias-J electric conception"
INDEX 00 17:01:14
FILE "06 - Sanctimonius Malice.wav" WAVE
INDEX 01 00:00:00
 
Лог проверки качества
-----------------------
DON'T MODIFY THIS FILE
-----------------------
PERFORMER: auCDtect Task Manager, ver. 1.5.1RC6 build 1.5.1.7
Copyright (c) 2008-2010 y-soft. All rights reserved
http://y-soft.org
ANALYZER: auCDtect: CD records authenticity detector, version 0.8.2
Copyright (c) 2004 Oleg Berngardt. All rights reserved.
Copyright (c) 2004 Alexander Djourik. All rights reserved.
FILE: 06 - Sanctimonius Malice.flac
Size: 42814602 Hash: F32B38AFA6FBF0232AC0A009306466D6 Accuracy: -m0
Conclusion: CDDA 100%
Signature: 7DF06C792AEE1B555192991F95DCDDDF9993B54B
FILE: 05 - Eugene's Second Book.flac
Size: 73028153 Hash: 08506BF2642E24E803750E4D80BE4F5A Accuracy: -m0
Conclusion: CDDA 100%
Signature: 3E66822215EEB63A896928FC1B63F0BB766FF05B
FILE: 04 - Elliptic Umbric.flac
Size: 52523332 Hash: E3B43C64332BBB70F333F42C25D58C7E Accuracy: -m0
Conclusion: CDDA 99%
Signature: 42B6DBA9D0519DC04DB21CB1A885804E2AE8BB9A
FILE: 03 - Palestine.flac
Size: 23299519 Hash: F5EBB3BA287E9E7D554C6A38B6FAFDE8 Accuracy: -m0
Conclusion: CDDA 100%
Signature: 831F7AD05D77EAFC67835AF6B2036B28746B15A8
FILE: 02 - Broadening Distribution - Invertion.flac
Size: 47594089 Hash: 71FB9D90C4467FB180D5CE192C0BEACC Accuracy: -m0
Conclusion: CDDA 100%
Signature: 2EBC2699AC2A79A3ED3803C6F96BBD4CD2572E2F
FILE: 01 - Perceptual Expectation.flac
Size: 89241373 Hash: F50523A77F28FCC937D397D759BCEFA9 Accuracy: -m0
Conclusion: CDDA 100%
Signature: 30A6DB1E9D41D6C0113763A9E83140480BC1ED0A
 
Об альбоме (сборнике)
Directed by Kondo Hideaki
Produced by Ikezumi Hideo
Tracks 2, 3, 4, 6 recorded live at Tonic, New York on October 30, 2003.
Tracks 1 & 5 recorded at Phenomena, New York on November 6, 2003.
http://www.discogs.com/EXIAS-J-Electric-Conception-Balance-Of-Chaos-20031030-116-.../release/1100141
 
Состав
Kondo Hideaki - guitar with electronics
Tanikawa Takuo - guitar with pc
Kanda Shin-Ichiro - piano, analogue synthesizer
Miyazaki Tetsuy - alive electronics, computer
Kawasaki Jun - contrabass
Nishizawa Naoto - drums, percussion
with guest Nicholas D.Kent - analogue synthesizer
По всем вопросам пишите личное сообщение пользователю M0p94ok.
14:51
209
Нет комментариев. Ваш будет первым!