Вы используете незарегистрированную версию компонента "Вкладки"!

Поиск

(Free Jazz) [CD] Cactus Truck (John Dikeman, Onno Govaert, Jasper Stadhouders) - Brand New For China! - 2012, FLAC (tracks+.cue), lossless

(Free Jazz) [CD] Cactus Truck (John Dikeman, Onno Govaert, Jasper Stadhouders) - Brand New For China! - 2012, FLAC (tracks+.cue), lossless
Треклист:
Cactus Truck / Brand New For China!
Жанр: Free Jazz
Носитель: CD
Страна-производитель диска (релиза): USA
Год издания: 2012
Издатель (лейбл): Public Eyesore
Номер по каталогу: PE119
Аудиокодек: FLAC (*.flac)
Тип рипа: tracks+.cue
Битрейт аудио: lossless
Продолжительность: 29:56
Источник (релизер): gssmg7
Наличие сканов в содержимом раздачи: да
Треклист:
1. Aporia (10:39)
2. Search And Restore (0:28)
3. Coitiphobe (6:23)
4. Sweet Movie (7:01)
5. Plork (0:28)
6. The Snotgreen Sea, The Scrotumtightening Sea (4:45)
7. La La La La Labia Time! (0:24)
http://www.publiceyesore.com/catalog.php?pg=3&pit=119
 
Лог создания рипа
Exact Audio Copy V1.0 beta 2 from 29. April 2011
EAC extraction logfile from 31. July 2015, 23:21
Cactus Truck / Brand New For China!
Used drive : Optiarc DVD RW AD-5280S Adapter: 1 ID: 1
Read mode : Secure
Utilize accurate stream : Yes
Defeat audio cache : Yes
Make use of C2 pointers : No
Read offset correction : 48
Overread into Lead-In and Lead-Out : No
Fill up missing offset samples with silence : Yes
Delete leading and trailing silent blocks : No
Null samples used in CRC calculations : Yes
Used interface : Installed external ASPI interface
Gap handling : Appended to previous track
Used output format : User Defined Encoder
Selected bitrate : 128 kBit/s
Quality : High
Add ID3 tag : No
Command line compressor : C:\Program Files\FLAC\flac.exe
Additional command line options : -V -8 -T "Genre=%genre%" -T "Artist=%artist%" -T "Title=%title%" -T "Album=%albumtitle%" -T "Date=%year%" -T "Tracknumber=%tracknr%" -T "Comment=%comment%" %source%
TOC of the extracted CD
Track | Start | Length | Start sector | End sector
---------------------------------------------------------
1 | 0:00.00 | 10:36.36 | 0 | 47735
2 | 10:36.36 | 0:25.40 | 47736 | 49650
3 | 11:02.01 | 6:21.13 | 49651 | 78238
4 | 17:23.14 | 6:58.73 | 78239 | 109661
5 | 24:22.12 | 0:23.60 | 109662 | 111446
6 | 24:45.72 | 4:47.33 | 111447 | 133004
7 | 29:33.30 | 0:23.35 | 133005 | 134764
Track 1
Filename C:\Cactus Truck (2012) - Brand New For China!\01 - Aporia.wav
Pre-gap length 0:00:02.00
Peak level 94.4 %
Extraction speed 5.3 X
Track quality 100.0 %
Test CRC F5DA5635
Copy CRC F5DA5635
Track not present in AccurateRip database
Copy OK
Track 2
Filename C:\Cactus Truck (2012) - Brand New For China!\02 - Search and Restore.wav
Pre-gap length 0:00:02.00
Peak level 94.4 %
Extraction speed 1.6 X
Track quality 99.5 %
Test CRC 7ABB687B
Copy CRC 7ABB687B
Track not present in AccurateRip database
Copy OK
Track 3
Filename C:\Cactus Truck (2012) - Brand New For China!\03 - Coitophobe.wav
Pre-gap length 0:00:02.00
Peak level 94.4 %
Extraction speed 6.3 X
Track quality 100.0 %
Test CRC DABF43B8
Copy CRC DABF43B8
Track not present in AccurateRip database
Copy OK
Track 4
Filename C:\Cactus Truck (2012) - Brand New For China!\04 - Sweet Movie.wav
Pre-gap length 0:00:02.00
Peak level 94.4 %
Extraction speed 6.5 X
Track quality 99.9 %
Test CRC DF260B36
Copy CRC DF260B36
Track not present in AccurateRip database
Copy OK
Track 5
Filename C:\Cactus Truck (2012) - Brand New For China!\05 - Plork.wav
Pre-gap length 0:00:02.00
Peak level 94.4 %
Extraction speed 3.1 X
Track quality 100.0 %
Test CRC DD7DFD77
Copy CRC DD7DFD77
Track not present in AccurateRip database
Copy OK
Track 6
Filename C:\Cactus Truck (2012) - Brand New For China!\06 - The snotgreen sea, the scrotumtightening sea.wav
Pre-gap length 0:00:02.00
Peak level 94.4 %
Extraction speed 7.3 X
Track quality 100.0 %
Test CRC 0ED428BC
Copy CRC 0ED428BC
Track not present in AccurateRip database
Copy OK
Track 7
Filename C:\Cactus Truck (2012) - Brand New For China!\07 - La La La La Labia Time!.wav
Pre-gap length 0:00:02.00
Peak level 94.4 %
Extraction speed 3.2 X
Track quality 100.0 %
Test CRC 750EF03F
Copy CRC 750EF03F
Track not present in AccurateRip database
Copy OK
None of the tracks are present in the AccurateRip database
No errors occurred
End of status report
==== Log checksum A9B98C149CF0F591BBCCB15BD24255EEED49A6A50B513F8901957BFF1EE47B10 ====
 
Содержание индексной карты (.CUE)
REM GENRE Jazz
REM DATE 2012
REM DISCID 64070407
REM COMMENT "ExactAudioCopy v1.0b2"
PERFORMER "Cactus Truck"
TITLE "Brand New For China!"
FILE "01 - Aporia.wav" WAVE
TRACK 01 AUDIO
TITLE "Aporia"
PERFORMER "Cactus Truck"
INDEX 01 00:00:00
TRACK 02 AUDIO
TITLE "Search and Restore"
PERFORMER "Cactus Truck"
INDEX 00 10:34:36
FILE "02 - Search and Restore.wav" WAVE
INDEX 01 00:00:00
TRACK 03 AUDIO
TITLE "Coitophobe"
PERFORMER "Cactus Truck"
INDEX 00 00:23:40
FILE "03 - Coitophobe.wav" WAVE
INDEX 01 00:00:00
TRACK 04 AUDIO
TITLE "Sweet Movie"
PERFORMER "Cactus Truck"
INDEX 00 06:19:13
FILE "04 - Sweet Movie.wav" WAVE
INDEX 01 00:00:00
TRACK 05 AUDIO
TITLE "Plork"
PERFORMER "Cactus Truck"
INDEX 00 06:56:73
FILE "05 - Plork.wav" WAVE
INDEX 01 00:00:00
TRACK 06 AUDIO
TITLE "The snotgreen sea, the scrotumtightening sea"
PERFORMER "Cactus Truck"
INDEX 00 00:21:60
FILE "06 - The snotgreen sea, the scrotumtightening sea.wav" WAVE
INDEX 01 00:00:00
TRACK 07 AUDIO
TITLE "La La La La Labia Time!"
PERFORMER "Cactus Truck"
INDEX 00 04:45:33
FILE "07 - La La La La Labia Time!.wav" WAVE
INDEX 01 00:00:00
 
Об альбоме (сборнике)
John Dikeman is one of the most interesting saxophonists now operating in the Amsterdam scene. He is a charismatic player, well-versed in the legacy of modern and free jazz as his recent releases— Across the sky, with bassist Raoul Van Der Weide and drummer Klaus Kugel (Not Two, 2012); and Nihil is Now (Stone Floor, 2012), with the Universal Indians trio—testify. Still, it is the Cactus Truck trio that represents Dikeman at his best. This trio— with bassist/guitarist Jasper Stadhouders and drummer Onno Govaert, has its roots in other power outfits like the electric groups of Peter Brötzmann (Last Exit, Hairy Bones and Trio Roma), The Thing and Zu. Brutal, furious and uncompromising, but with punk aesthetics; meaning that this trio plays fast, with a dirty sound and often ridiculously short pieces. The sonic assault begins with the longest piece, "Aporia"— the A side, of the vinyl version of this album— ten minutes of explosive, skronky playing by all three musicians. Dikeman's dominant screams pierce the sky, Stadhouders' distorted and aggressive bass and guitar lines intensifies the sonic mayhem and Govaert's fractured, unpredictable rhythmic pattern keeps all on their edge. The B side begins with another super-fast sonic attack, the compact, 26-second "Search and Restore." The other pieces—"Coitophobe" and "Sweet Movie"—still continue in a similarly muscular, energetic vein, but with more open dynamics and room for solo articulations. 24 chaotic and noisy seconds of "Plork" seal the vinyl version. The bonus pieces on the CD version include the punkish "The snotgreen sea, the scrotumtightening sea," that sounds like it's as paying tribute to improvised dynamics of fellow Dutch bend The Ex (and The Ex's guitarist, Terrie Hessels, collaborated with the trio). The 23 seconds of explosive "La la la la labia time!" conclude this wild ride. ~ eyal hareuveni, allaboutjazz.com
It starts with a bang! A starter pistol of sorts. This fight to the death, this Brand New For China! album by Cactus Truck has begun. Weapons are chosen. Onno Govaert on drums, Jasper Stadhouders on guitars, and John Dikeman on saxophone, two from the Netherlands and one from America respectively, step into the ring to see who will come out alive holding the recording. Track one, Aporia, gets to the heart of the matter quickly with all three members fighting for the last available sliver of bandwidth to squeeze their point of view into. Stadhouders pulls up an impenetrable curtain of sound, Govaert's use of the kick drum is like a man with a death wish searching for land mines, and Dikeman plays is if in a headlock. His sound is very purposeful from the strain in the upper registers to the distortion on the opposite end. Aporia is a wonderfully thought out track on this 31 minute record and definitely it's focal point as it gives us the roadmap that the rest of the album follows. It, over the course of its 10 and a half minute duration, gives us pure raw punk aggression, to a diminution, to a lone pleading cry from the saxophone before ramping the whole thing up again to its original fury. Some great playing here. A band I would definitely love to see and experience live. With some of their juvenile song titles aside, la la la la labia time!, or The snotgreen sea, the scrotumtightening sea, which fall into their punk aesthetic, there are some very mature and experienced interactions and decisions within the tunes on this album, which definitively places it back to the jazz tradition. On Coitiphobe, Dikeman steps back to let the rhythm section have a duo moment. If you are quick enough, the album is peppered with such moments. Whether it be the sax and drums or any other duo incarnation, (there are several really good ones on Sweet Movie) they are worth waiting for, but enjoy them because they don't last very long, as this is not the type of band that likes standing in a ring without throwing punches. Almost to a fault. Brand New For China! reads like a calling card, unapologetically letting us know what their agenda is, from the 3, thirty second blasts of intensity, laced around the 4 longer tracks, to their choice of album cover art. They mean business, and like anyone from the punk tradition, they don't care what we think. I can't wait to see what else they bring to the table on their next effort. ~ philip coombs, freejazzblog.org
 
Состав
John Dikeman - soprano, tenor & baritone saxophones
Jasper Stadhouders - guitar & bass
Onno Govaert - drums
По всем вопросам пишите личное сообщение пользователю M0p94ok.
14:52
146
Нет комментариев. Ваш будет первым!