Вы используете незарегистрированную версию компонента "Вкладки"!

Поиск

(Free Improvisation, Avantgarde) [CD] Tanikawa Takuo - Transfigured Night - 2004, FLAC (tracks+.cue), lossless

(Free Improvisation, Avantgarde) [CD] Tanikawa Takuo - Transfigured Night - 2004, FLAC (tracks+.cue), lossless
Треклист:
Tanikawa Takuo / Transfigured Night
Жанр: Free Improvisation, Avantgarde
Носитель: CD
Страна-производитель диска (релиза): Japan
Год издания: 2004
Издатель (лейбл): Bishop Records
Номер по каталогу: EXJP 011
Страна исполнителя (группы): Japan
Аудиокодек: FLAC (*.flac)
Тип рипа: tracks+.cue
Битрейт аудио: lossless
Продолжительность: 49:36
Источник (релизер): рип собственный
Наличие сканов в содержимом раздачи: да
Треклист:
1-3. Transfigured Night (e-guitar, contrabass) [17:49]
- Revelation [3:52]
- Dusk-Gloom [9:30]
- Invocation [4:26]
4. Meeting on 030216 (g-guitar, piano, drums) [9:52]
5. NY Improvisation (g-guitar with pc, percussion) [15:07]
6. Freak Weather (e-guitar, Think Pad) [6:47]
 
Лог создания рипа
Exact Audio Copy V1.0 beta 3 from 29. August 2011
EAC extraction logfile from 31. July 2015, 15:59
Tanikawa Takuo / Transfigured Night
Used drive : PIONEER BD-RW BDR-208M Adapter: 0 ID: 1
Read mode : Secure
Utilize accurate stream : Yes
Defeat audio cache : Yes
Make use of C2 pointers : No
Read offset correction : 667
Overread into Lead-In and Lead-Out : No
Fill up missing offset samples with silence : Yes
Delete leading and trailing silent blocks : No
Null samples used in CRC calculations : Yes
Used interface : Native Win32 interface for Win NT & 2000
Gap handling : Appended to previous track
Used output format : Internal WAV Routines
Sample format : 44.100 Hz; 16 Bit; Stereo
TOC of the extracted CD
Track | Start | Length | Start sector | End sector
---------------------------------------------------------
1 | 0:00.00 | 3:52.19 | 0 | 17418
2 | 3:52.19 | 9:30.10 | 17419 | 60178
3 | 13:22.29 | 4:26.23 | 60179 | 80151
4 | 17:48.52 | 9:52.19 | 80152 | 124570
5 | 27:40.71 | 15:07.23 | 124571 | 192618
6 | 42:48.19 | 6:47.25 | 192619 | 223168
Track 1
Filename C:\Sounds\Tanikawa Takuo - Transfigured Night (2004)[FLAC]\01 - Transfigured Night - Revelation.wav
Pre-gap length 0:00:02.00
Peak level 100.0 %
Extraction speed 4.8 X
Track quality 100.0 %
Test CRC 78E0D266
Copy CRC 78E0D266
Accurately ripped (confidence 1) [C584D739] (AR v1)
Copy OK
Track 2
Filename C:\Sounds\Tanikawa Takuo - Transfigured Night (2004)[FLAC]\02 - Transfigured Night - Dusk-Gloom.wav
Peak level 99.9 %
Extraction speed 6.0 X
Track quality 100.0 %
Test CRC 51A54FE2
Copy CRC 51A54FE2
Accurately ripped (confidence 1) [A4A44C2B] (AR v1)
Copy OK
Track 3
Filename C:\Sounds\Tanikawa Takuo - Transfigured Night (2004)[FLAC]\03 - Transfigured Night - Invocation.wav
Peak level 72.5 %
Extraction speed 6.3 X
Track quality 100.0 %
Test CRC A76C152F
Copy CRC A76C152F
Accurately ripped (confidence 1) [060FD1B5] (AR v1)
Copy OK
Track 4
Filename C:\Sounds\Tanikawa Takuo - Transfigured Night (2004)[FLAC]\04 - Meeting on 030216.wav
Peak level 100.0 %
Extraction speed 7.0 X
Track quality 99.9 %
Test CRC A910EC26
Copy CRC A910EC26
Accurately ripped (confidence 1) [E0FFD9DB] (AR v1)
Copy OK
Track 5
Filename C:\Sounds\Tanikawa Takuo - Transfigured Night (2004)[FLAC]\05 - NY Improvisation.wav
Peak level 100.0 %
Extraction speed 8.4 X
Track quality 100.0 %
Test CRC 086BFBD1
Copy CRC 086BFBD1
Accurately ripped (confidence 1) [F14C521D] (AR v1)
Copy OK
Track 6
Filename C:\Sounds\Tanikawa Takuo - Transfigured Night (2004)[FLAC]\06 - Freak Weather.wav
Peak level 62.3 %
Extraction speed 8.5 X
Track quality 100.0 %
Test CRC 7BAC315F
Copy CRC 7BAC315F
Accurately ripped (confidence 1) [47B0BC32] (AR v1)
Copy OK
All tracks accurately ripped
No errors occurred
End of status report
==== Log checksum DE213BCF11E0D09893D7B89EEB711D5AF093C8D09DAAF96370F46FA22EDA7D5A ====
 
Содержание индексной карты (.CUE)
REM GENRE Avantgarde
REM DATE 2004
REM DISCID 3C0B9F06
REM COMMENT "ExactAudioCopy v1.0b3"
PERFORMER "Tanikawa Takuo"
TITLE "Transfigured Night"
FILE "01 - Transfigured Night - Revelation.wav" WAVE
TRACK 01 AUDIO
TITLE "Transfigured Night - Revelation"
PERFORMER "Tanikawa Takuo"
INDEX 01 00:00:00
FILE "02 - Transfigured Night - Dusk-Gloom.wav" WAVE
TRACK 02 AUDIO
TITLE "Transfigured Night - Dusk-Gloom"
PERFORMER "Tanikawa Takuo"
INDEX 01 00:00:00
FILE "03 - Transfigured Night - Invocation.wav" WAVE
TRACK 03 AUDIO
TITLE "Transfigured Night - Invocation"
PERFORMER "Tanikawa Takuo"
INDEX 01 00:00:00
FILE "04 - Meeting on 030216.wav" WAVE
TRACK 04 AUDIO
TITLE "Meeting on 030216"
PERFORMER "Tanikawa Takuo"
INDEX 01 00:00:00
FILE "05 - NY Improvisation.wav" WAVE
TRACK 05 AUDIO
TITLE "NY Improvisation"
PERFORMER "Tanikawa Takuo"
INDEX 01 00:00:00
FILE "06 - Freak Weather.wav" WAVE
TRACK 06 AUDIO
TITLE "Freak Weather"
PERFORMER "Tanikawa Takuo"
INDEX 01 00:00:00
 
Лог проверки качества
-----------------------
DON'T MODIFY THIS FILE
-----------------------
PERFORMER: auCDtect Task Manager, ver. 1.5.1RC6 build 1.5.1.7
Copyright (c) 2008-2010 y-soft. All rights reserved
http://y-soft.org
ANALYZER: auCDtect: CD records authenticity detector, version 0.8.2
Copyright (c) 2004 Oleg Berngardt. All rights reserved.
Copyright (c) 2004 Alexander Djourik. All rights reserved.
FILE: 01 - Transfigured Night - Revelation.flac
Size: 15454018 Hash: C51C143A9C782C099F5373AC1E022A39 Accuracy: -m0
Conclusion: CDDA 100%
Signature: F1C8502A48D47297415A2A72261020D1C70900A3
FILE: 02 - Transfigured Night - Dusk-Gloom.flac
Size: 38009130 Hash: 69D4BF97F1F22D31CB0086E43EC2E5A7 Accuracy: -m0
Conclusion: CDDA 58%
Signature: 2E1A876D546C65E2A3FC4411E0E4C475584F9040
FILE: 03 - Transfigured Night - Invocation.flac
Size: 18840550 Hash: AA76E59495930B119AE368807B0F2C6B Accuracy: -m0
Conclusion: CDDA 100%
Signature: D9BE7906E39FFC4604BE27A9D591C2233A121D2D
FILE: 04 - Meeting on 030216.flac
Size: 43602033 Hash: 594E2890A179768D77079E3ECF4151C3 Accuracy: -m0
Conclusion: CDDA 100%
Signature: 88318E51A5D62DAE2C7A2CE719E76C877FB59476
FILE: 05 - NY Improvisation.flac
Size: 62402355 Hash: C33C5DB380B197A69910E8F932592DAA Accuracy: -m0
Conclusion: CDDA 85%
Signature: 13F80F49B73C0CD85DEAB67DA39543DC5EE563CD
FILE: 06 - Freak Weather.flac
Size: 29769734 Hash: 48121458420E6F63DA8A3A429E3FC097 Accuracy: -m0
Conclusion: CDDA 100%
Signature: 11C321F4A6FDC0FFEED8B1F7DE98EC355B06BB76
 
Об альбоме (сборнике)
Recorded by KONDO Hideaki
Live at Daikanyama Classics (Tokyo): 1,2,3
Live at Gallery of Anthology Film Archive (New York);5
YAMASHITA Wataru Live at Aire Gin (Yokohama);4
TANIKAWA Takuo & ENDO Kazumoto
Live at Knuttel House (Tokyo) and added at private studios;6
Mixed by
KONDO Hideaki: 1,2,3,5
TANIKAWA Takuo; 4
TANIKAWA Takuo & ENDO Kazumoto;6
Mastered by KONDO Hideaki
Photos & Designed by TANIKAWA Yuko
Directed & Produced by TANIKAWA Takuo
 
Состав
Tanikawa Takuo - guitar
Kawasaki Jun - contrabass
Koyama Shota - drums
Kanda Shin-Ichiro - piano
Tim Barnes - percussion
Endo Kazumoto - Think Pad
По всем вопросам пишите личное сообщение пользователю M0p94ok.
14:50
166
Нет комментариев. Ваш будет первым!