Вы используете незарегистрированную версию компонента "Вкладки"!

Поиск

(free jazz) [cd] Bertrand Denzler/Norbert Pfammatter - NanoCLUSTER 02 2000, FLAC (tracks+.cue), lossless

(free jazz) [cd] Bertrand Denzler/Norbert Pfammatter - NanoCLUSTER 02 2000, FLAC (tracks+.cue), lossless
Треклист:
(free jazz) [cd] Bertrand Denzler/Norbert Pfammatter - NanoCLUSTER 02 2000, FLAC (tracks+.cue), lossless


Bertrand Denzler/Norbert Pfammatter - NanoCLUSTER 02 2000

Жанр: free jazz
Год выпуска: 2000
Издатель (лейбл):Leo
Формат: FLAC (tracks+.cue)
Битрейт аудио: lossless
Продолжительность 57`20
Источник: what.cd

tracks

1 One 5:25
2 Two 10:49
3 Three 5:36
4 Four 8:36
5 Five 0:48
6 Six 7:53
7 Seven 5:19
8 Eight 3:24
9 Nine 6:38
10 Ten 2:47


 
.log
Exact Audio Copy V1.0 beta 3 from 29. August 2011
EAC extraction logfile from 7. August 2015, 0:44
Bertrand Denzler/Norbert Pfammatter / NanoCLUSTER 02/2000
Used drive : HL-DT-STDVDRAM SP80NB60 Adapter: 0 ID: 0
Read mode : Secure
Utilize accurate stream : Yes
Defeat audio cache : Yes
Make use of C2 pointers : No
Read offset correction : 6
Overread into Lead-In and Lead-Out : No
Fill up missing offset samples with silence : Yes
Delete leading and trailing silent blocks : No
Null samples used in CRC calculations : Yes
Used interface : Native Win32 interface for Win NT & 2000
Gap handling : Appended to previous track
Used output format : User Defined Encoder
Selected bitrate : 1024 kBit/s
Quality : High
Add ID3 tag : No
Command line compressor : C:\Program Files (x86)\FLAC\flac.exe
Additional command line options : -8 -V -T "ARTIST=%artist%" -T "TITLE=%title%" -T "ALBUM=%albumtitle%" -T "DATE=%year%" -T "TRACKNUMBER=%tracknr%" -T "GENRE=%genre%" -T "PERFORMER=%albuminterpret%" -T "COMPOSER=%composer%" %haslyrics%--tag-from-file=LYRICS="%lyricsfile%"%haslyrics% -T "ALBUMARTIST=%albumartist%" -T "DISCNUMBER=%cdnumber%" -T "TOTALDISCS=%totalcds%" -T "TOTALTRACKS=%numtracks%" -T "COMMENT=%comment%" %source% -o %dest%
TOC of the extracted CD
Track | Start | Length | Start sector | End sector
---------------------------------------------------------
1 | 0:00.00 | 5:25.69 | 0 | 24443
2 | 5:25.69 | 10:49.27 | 24444 | 73145
3 | 16:15.21 | 5:36.00 | 73146 | 98345
4 | 21:51.21 | 8:36.57 | 98346 | 137102
5 | 30:28.03 | 0:48.63 | 137103 | 140765
6 | 31:16.66 | 7:53.73 | 140766 | 176313
7 | 39:10.64 | 5:19.07 | 176314 | 200245
8 | 44:29.71 | 3:24.53 | 200246 | 215598
9 | 47:54.49 | 6:38.19 | 215599 | 245467
10 | 54:32.68 | 2:47.22 | 245468 | 258014
Track 1
Filename C:\EAC Rips\Bertrand Denzler Norbert Pfammatter - NanoCLUSTER 02 2000 (2000) [FLAC]\01 One.wav
Pre-gap length 0:00:02.00
Peak level 99.0 %
Extraction speed 1.2 X
Track quality 100.0 %
Test CRC 39CBB778
Copy CRC 39CBB778
Accurately ripped (confidence 1) [D1F045FB] (AR v2)
Copy OK
Track 2
Filename C:\EAC Rips\Bertrand Denzler Norbert Pfammatter - NanoCLUSTER 02 2000 (2000) [FLAC]\02 Two.wav
Pre-gap length 0:00:01.54
Peak level 98.7 %
Extraction speed 1.5 X
Track quality 99.9 %
Test CRC 1F04A1AC
Copy CRC 1F04A1AC
Accurately ripped (confidence 1) [BF46886A] (AR v2)
Copy OK
Track 3
Filename C:\EAC Rips\Bertrand Denzler Norbert Pfammatter - NanoCLUSTER 02 2000 (2000) [FLAC]\03 Three.wav
Pre-gap length 0:00:00.26
Peak level 97.2 %
Extraction speed 1.6 X
Track quality 99.9 %
Test CRC 2661F835
Copy CRC 2661F835
Accurately ripped (confidence 1) [750D6928] (AR v2)
Copy OK
Track 4
Filename C:\EAC Rips\Bertrand Denzler Norbert Pfammatter - NanoCLUSTER 02 2000 (2000) [FLAC]\04 Four.wav
Pre-gap length 0:00:01.85
Peak level 99.0 %
Extraction speed 2.0 X
Track quality 100.0 %
Test CRC F5A55132
Copy CRC F5A55132
Accurately ripped (confidence 1) [F434F168] (AR v2)
Copy OK
Track 5
Filename C:\EAC Rips\Bertrand Denzler Norbert Pfammatter - NanoCLUSTER 02 2000 (2000) [FLAC]\05 Five.wav
Pre-gap length 0:00:00.14
Peak level 60.5 %
Extraction speed 1.2 X
Track quality 100.0 %
Test CRC 9D05D19A
Copy CRC 9D05D19A
Accurately ripped (confidence 1) [36E4B510] (AR v2)
Copy OK
Track 6
Filename C:\EAC Rips\Bertrand Denzler Norbert Pfammatter - NanoCLUSTER 02 2000 (2000) [FLAC]\06 Six.wav
Pre-gap length 0:00:00.77
Peak level 97.9 %
Extraction speed 2.2 X
Track quality 100.0 %
Test CRC FCF1A352
Copy CRC FCF1A352
Accurately ripped (confidence 1) [BAEAAA52] (AR v2)
Copy OK
Track 7
Filename C:\EAC Rips\Bertrand Denzler Norbert Pfammatter - NanoCLUSTER 02 2000 (2000) [FLAC]\07 Seven.wav
Pre-gap length 0:00:01.76
Peak level 98.8 %
Extraction speed 2.2 X
Track quality 100.0 %
Test CRC 09B2C141
Copy CRC 09B2C141
Accurately ripped (confidence 1) [D5735E26] (AR v2)
Copy OK
Track 8
Filename C:\EAC Rips\Bertrand Denzler Norbert Pfammatter - NanoCLUSTER 02 2000 (2000) [FLAC]\08 Eight.wav
Pre-gap length 0:00:01.58
Peak level 98.8 %
Extraction speed 2.2 X
Track quality 100.0 %
Test CRC 85EA85EB
Copy CRC 85EA85EB
Accurately ripped (confidence 1) [A1EB0868] (AR v2)
Copy OK
Track 9
Filename C:\EAC Rips\Bertrand Denzler Norbert Pfammatter - NanoCLUSTER 02 2000 (2000) [FLAC]\09 Nine.wav
Pre-gap length 0:00:01.49
Peak level 99.1 %
Extraction speed 2.5 X
Track quality 100.0 %
Test CRC 0C0A9DBD
Copy CRC 0C0A9DBD
Accurately ripped (confidence 1) [4419AFF8] (AR v2)
Copy OK
Track 10
Filename C:\EAC Rips\Bertrand Denzler Norbert Pfammatter - NanoCLUSTER 02 2000 (2000) [FLAC]\10 Ten.wav
Pre-gap length 0:00:01.86
Peak level 98.6 %
Extraction speed 1.9 X
Track quality 99.9 %
Test CRC CA0500C5
Copy CRC CA0500C5
Accurately ripped (confidence 1) [D132FD88] (AR v2)
Copy OK
All tracks accurately ripped
No errors occurred
End of status report
---- CUETools DB Plugin V2.1.3
[CTDB TOCID: NGjIkGdc.XAtH0Prea0HdgH0vNc-] found, Submit result: NGjIkGdc.XAtH0Prea0HdgH0vNc- has been confirmed
[f54beb78] (1/1) Accurately ripped
==== Log checksum 9A8AE7198704E2A6DB79BAC4E9D546AE1D20DCC72DA150E15D6EAE339EF6826B ====
 
.cue
REM GENRE Jazz
REM DATE 2000
REM DISCID 940D700A
REM COMMENT "ExactAudioCopy v1.0b3"
CATALOG 0000000000000
PERFORMER "Bertrand Denzler/Norbert Pfammatter"
TITLE "NanoCLUSTER 02/2000"
FILE "01 One.wav" WAVE
TRACK 01 AUDIO
TITLE "One"
PERFORMER "Bertrand Denzler/Norbert Pfammatter"
INDEX 01 00:00:00
TRACK 02 AUDIO
TITLE "Two"
PERFORMER "Bertrand Denzler/Norbert Pfammatter"
INDEX 00 05:24:28
FILE "02 Two.wav" WAVE
INDEX 01 00:00:00
TRACK 03 AUDIO
TITLE "Three"
PERFORMER "Bertrand Denzler/Norbert Pfammatter"
INDEX 00 10:49:07
FILE "03 Three.wav" WAVE
INDEX 01 00:00:00
TRACK 04 AUDIO
TITLE "Four"
PERFORMER "Bertrand Denzler/Norbert Pfammatter"
INDEX 00 05:34:11
FILE "04 Four.wav" WAVE
INDEX 01 00:00:00
TRACK 05 AUDIO
TITLE "Five"
PERFORMER "Bertrand Denzler/Norbert Pfammatter"
INDEX 00 08:36:46
FILE "05 Five.wav" WAVE
INDEX 01 00:00:00
TRACK 06 AUDIO
TITLE "Six"
PERFORMER "Bertrand Denzler/Norbert Pfammatter"
INDEX 00 00:48:05
FILE "06 Six.wav" WAVE
INDEX 01 00:00:00
TRACK 07 AUDIO
TITLE "Seven"
PERFORMER "Bertrand Denzler/Norbert Pfammatter"
INDEX 00 07:52:16
FILE "07 Seven.wav" WAVE
INDEX 01 00:00:00
TRACK 08 AUDIO
TITLE "Eight"
PERFORMER "Bertrand Denzler/Norbert Pfammatter"
INDEX 00 05:17:38
FILE "08 Eight.wav" WAVE
INDEX 01 00:00:00
TRACK 09 AUDIO
TITLE "Nine"
PERFORMER "Bertrand Denzler/Norbert Pfammatter"
INDEX 00 03:23:16
FILE "09 Nine.wav" WAVE
INDEX 01 00:00:00
TRACK 10 AUDIO
TITLE "Ten"
PERFORMER "Bertrand Denzler/Norbert Pfammatter"
INDEX 00 06:36:29
FILE "10 Ten.wav" WAVE
INDEX 01 00:00:00

другие релизы
По всем вопросам пишите личное сообщение пользователю M0p94ok.
16:22
137
Нет комментариев. Ваш будет первым!