Вы используете незарегистрированную версию компонента "Вкладки"!

Поиск

(free jazz) [cd] Fulcher, Standon, Brandt, Anderson - Conspiracy of Equals (2006), FLAC (tracks+.cue), lossless

(free jazz) [cd] Fulcher, Standon, Brandt, Anderson - Conspiracy of Equals (2006), FLAC (tracks+.cue), lossless
Треклист:
(free jazz) [cd] Fulcher, Standon, Brandt, Anderson - Conspiracy of Equals (2006), FLAC (tracks+.cue), lossless


Harry S. Fulcher, Aaron Standon, Pete Brandt, Marco Anderson
Conspiracy of Equals (2006)
Жанр:free jazz
Год выпуска: 2006
Издатель (лейбл):Leo
Формат: FLAC (tracks+.cue)
Битрейт аудио: lossless
Продолжительность 59`59
Источник: what.cd

tracks

1 Hatching 4:15
2 The Tibetan XI 5:11
3 Jazzantz 3:41
4 Tunnel-History-Vision 8:46
5 Starters 7:55
6 Talks Amongst Themselves 7:57
7 Voodoo Butter 6:16
8 All The Things You Weren't 5:27
9 Shirty 10:34


 
.log
Exact Audio Copy V1.0 beta 3 from 29. August 2011
EAC extraction logfile from 8. August 2015, 15:27
Harry S. Fulcher, Aaron Standon, Pete Brandt, Marco Anderson / Conspiracy of Equals
Used drive : HL-DT-STDVDRAM SP80NB60 Adapter: 0 ID: 0
Read mode : Secure
Utilize accurate stream : Yes
Defeat audio cache : Yes
Make use of C2 pointers : No
Read offset correction : 6
Overread into Lead-In and Lead-Out : No
Fill up missing offset samples with silence : Yes
Delete leading and trailing silent blocks : No
Null samples used in CRC calculations : Yes
Used interface : Native Win32 interface for Win NT & 2000
Gap handling : Appended to previous track
Used output format : User Defined Encoder
Selected bitrate : 1024 kBit/s
Quality : High
Add ID3 tag : No
Command line compressor : C:\Program Files (x86)\FLAC\flac.exe
Additional command line options : -8 -V -T "ARTIST=%artist%" -T "TITLE=%title%" -T "ALBUM=%albumtitle%" -T "DATE=%year%" -T "TRACKNUMBER=%tracknr%" -T "GENRE=%genre%" -T "PERFORMER=%albuminterpret%" -T "COMPOSER=%composer%" %haslyrics%--tag-from-file=LYRICS="%lyricsfile%"%haslyrics% -T "ALBUMARTIST=%albumartist%" -T "DISCNUMBER=%cdnumber%" -T "TOTALDISCS=%totalcds%" -T "TOTALTRACKS=%numtracks%" -T "COMMENT=%comment%" %source% -o %dest%
TOC of the extracted CD
Track | Start | Length | Start sector | End sector
---------------------------------------------------------
1 | 0:00.00 | 4:14.62 | 0 | 19111
2 | 4:14.62 | 5:10.73 | 19112 | 42434
3 | 9:25.60 | 3:40.74 | 42435 | 59008
4 | 13:06.59 | 8:45.11 | 59009 | 98394
5 | 21:51.70 | 7:54.51 | 98395 | 133995
6 | 29:46.46 | 7:57.00 | 133996 | 169770
7 | 37:43.46 | 6:15.24 | 169771 | 197919
8 | 43:58.70 | 5:26.44 | 197920 | 222413
9 | 49:25.39 | 10:33.12 | 222414 | 269900
Track 1
Filename C:\EAC Rips\Fulcher, Standon, Brandt, Anderson - Conspiracy of Equals (2006) [FLAC]\01 Hatching.wav
Pre-gap length 0:00:02.00
Peak level 94.4 %
Extraction speed 2.7 X
Track quality 100.0 %
Test CRC 3FA7EDEE
Copy CRC 3FA7EDEE
Track not present in AccurateRip database
Copy OK
Track 2
Filename C:\EAC Rips\Fulcher, Standon, Brandt, Anderson - Conspiracy of Equals (2006) [FLAC]\02 The Tibetan XI.wav
Peak level 79.2 %
Extraction speed 3.1 X
Track quality 100.0 %
Test CRC D10E6F09
Copy CRC D10E6F09
Track not present in AccurateRip database
Copy OK
Track 3
Filename C:\EAC Rips\Fulcher, Standon, Brandt, Anderson - Conspiracy of Equals (2006) [FLAC]\03 Jazzantz.wav
Peak level 85.7 %
Extraction speed 3.2 X
Track quality 100.0 %
Test CRC 8C6C7558
Copy CRC 8C6C7558
Track not present in AccurateRip database
Copy OK
Track 4
Filename C:\EAC Rips\Fulcher, Standon, Brandt, Anderson - Conspiracy of Equals (2006) [FLAC]\04 Tunnel-History-Vision.wav
Peak level 86.6 %
Extraction speed 3.9 X
Track quality 100.0 %
Test CRC EF5860F2
Copy CRC EF5860F2
Track not present in AccurateRip database
Copy OK
Track 5
Filename C:\EAC Rips\Fulcher, Standon, Brandt, Anderson - Conspiracy of Equals (2006) [FLAC]\05 Starters.wav
Peak level 87.6 %
Extraction speed 4.4 X
Track quality 100.0 %
Test CRC 5DCB58EC
Copy CRC 5DCB58EC
Track not present in AccurateRip database
Copy OK
Track 6
Filename C:\EAC Rips\Fulcher, Standon, Brandt, Anderson - Conspiracy of Equals (2006) [FLAC]\06 Talks Amongst Themselves.wav
Peak level 77.8 %
Extraction speed 4.8 X
Track quality 100.0 %
Test CRC DEE9CC0D
Copy CRC DEE9CC0D
Track not present in AccurateRip database
Copy OK
Track 7
Filename C:\EAC Rips\Fulcher, Standon, Brandt, Anderson - Conspiracy of Equals (2006) [FLAC]\07 Voodoo Butter.wav
Peak level 92.2 %
Extraction speed 5.0 X
Track quality 100.0 %
Test CRC D30C8B93
Copy CRC D30C8B93
Track not present in AccurateRip database
Copy OK
Track 8
Filename C:\EAC Rips\Fulcher, Standon, Brandt, Anderson - Conspiracy of Equals (2006) [FLAC]\08 All The Things You Weren't.wav
Peak level 77.7 %
Extraction speed 5.1 X
Track quality 100.0 %
Test CRC 772920F4
Copy CRC 772920F4
Track not present in AccurateRip database
Copy OK
Track 9
Filename C:\EAC Rips\Fulcher, Standon, Brandt, Anderson - Conspiracy of Equals (2006) [FLAC]\09 Shirty.wav
Peak level 81.9 %
Extraction speed 5.7 X
Track quality 100.0 %
Test CRC 98EA4759
Copy CRC 98EA4759
Track not present in AccurateRip database
Copy OK
None of the tracks are present in the AccurateRip database
No errors occurred
End of status report
---- CUETools DB Plugin V2.1.3
[CTDB TOCID: NAIh4DhG5jCU4vU82SzPZxsVRYI-] disk not present in database, Submit result: NAIh4DhG5jCU4vU82SzPZxsVRYI- has been uploaded
==== Log checksum 6C505897F570EA1A05612B98637BB7AF96DD443711557ABDC6F0BC57BE8519AF ====
 
.cue
REM GENRE Jazz
REM DATE 2005
REM DISCID 8B0E0E09
REM COMMENT "ExactAudioCopy v1.0b3"
PERFORMER "Harry S. Fulcher, Aaron Standon, Pete Brandt, Marco Anderson"
TITLE "Conspiracy of Equals"
FILE "01 Hatching.wav" WAVE
TRACK 01 AUDIO
TITLE "Hatching"
PERFORMER "Harry S. Fulcher, Aaron Standon, Pete Brandt, Marco Anderson"
INDEX 01 00:00:00
FILE "02 The Tibetan XI.wav" WAVE
TRACK 02 AUDIO
TITLE "The Tibetan XI"
PERFORMER "Harry S. Fulcher, Aaron Standon, Pete Brandt, Marco Anderson"
INDEX 01 00:00:00
FILE "03 Jazzantz.wav" WAVE
TRACK 03 AUDIO
TITLE "Jazzantz"
PERFORMER "Harry S. Fulcher, Aaron Standon, Pete Brandt, Marco Anderson"
INDEX 01 00:00:00
FILE "04 Tunnel-History-Vision.wav" WAVE
TRACK 04 AUDIO
TITLE "Tunnel-History-Vision"
PERFORMER "Harry S. Fulcher, Aaron Standon, Pete Brandt, Marco Anderson"
INDEX 01 00:00:00
FILE "05 Starters.wav" WAVE
TRACK 05 AUDIO
TITLE "Starters"
PERFORMER "Harry S. Fulcher, Aaron Standon, Pete Brandt, Marco Anderson"
INDEX 01 00:00:00
FILE "06 Talks Amongst Themselves.wav" WAVE
TRACK 06 AUDIO
TITLE "Talks Amongst Themselves"
PERFORMER "Harry S. Fulcher, Aaron Standon, Pete Brandt, Marco Anderson"
INDEX 01 00:00:00
FILE "07 Voodoo Butter.wav" WAVE
TRACK 07 AUDIO
TITLE "Voodoo Butter"
PERFORMER "Harry S. Fulcher, Aaron Standon, Pete Brandt, Marco Anderson"
INDEX 01 00:00:00
FILE "08 All The Things You Weren't.wav" WAVE
TRACK 08 AUDIO
TITLE "All The Things You Weren't"
PERFORMER "Harry S. Fulcher, Aaron Standon, Pete Brandt, Marco Anderson"
INDEX 01 00:00:00
FILE "09 Shirty.wav" WAVE
TRACK 09 AUDIO
TITLE "Shirty"
PERFORMER "Harry S. Fulcher, Aaron Standon, Pete Brandt, Marco Anderson"
INDEX 01 00:00:00

другие релизы
По всем вопросам пишите личное сообщение пользователю M0p94ok.
16:23
139
Нет комментариев. Ваш будет первым!