Вы используете незарегистрированную версию компонента "Вкладки"!

Поиск

(free jazz, free improvisation ) [cd] Neil Metcalfe, Guillaume Viltard & Daniel Thompson - Garden of Water and Light (2012), FLAC (tracks+.cue), lossless

(free jazz, free improvisation ) [cd] Neil Metcalfe, Guillaume Viltard & Daniel Thompson - Garden of Water and Light (2012), FLAC (tracks+.cue), lossless
Треклист:
(free jazz, free improvisation ) [cd] Neil Metcalfe, Guillaume Viltard & Daniel Thompson - Garden of Water and Light (2012), FLAC (tracks+.cue), lossless


Neil Metcalfe, Guillaume Viltard & Daniel Thompson
Garden of Water and Light (2012)
Жанр: free jazz, free improvisation
Год выпуска: 2012
Издатель (лейбл):FMR / FMRCD341-0812
Формат: FLAC (tracks+.cue)
Битрейт аудио: lossless
Продолжительность 36`39
Источник: what.cd

tracks

Garden Of Water And Light (27:05)
1.1 I. Water
1.2 II. Light
2 Vimeth 9:31


 
.log
Exact Audio Copy V1.0 beta 3 from 29. August 2011
EAC extraction logfile from 22. September 2013, 11:59
Neil Metcalfe, Guillaume Viltard & Daniel Thompson / Garden of Water and Light
Used drive : HL-DT-STDVDRAM GT60N Adapter: 2 ID: 0
Read mode : Secure
Utilize accurate stream : Yes
Defeat audio cache : Yes
Make use of C2 pointers : No
Read offset correction : 103
Overread into Lead-In and Lead-Out : No
Fill up missing offset samples with silence : Yes
Delete leading and trailing silent blocks : No
Null samples used in CRC calculations : Yes
Used interface : Native Win32 interface for Win NT & 2000
Gap handling : Appended to previous track
Used output format : User Defined Encoder
Selected bitrate : 1024 kBit/s
Quality : High
Add ID3 tag : No
Command line compressor : C:\Program Files (x86)\Exact Audio Copy\Flac\flac.exe
Additional command line options : -8 -V -T "ARTIST=%artist%" -T "TITLE=%title%" -T "ALBUM=%albumtitle%" -T "DATE=%year%" -T "TRACKNUMBER=%tracknr1%" -T "GENRE=%genre%" -T "PERFORMER=%albuminterpret%" -T "COMPOSER=%composer%" %haslyrics%--tag-from-file=LYRICS="%lyricsfile%"%haslyrics% -T "ALBUMARTIST=%albumartist%" -T "DISCNUMBER=%cdnumber%" -T "TOTALDISCS=%totalcds%" -T "TOTALTRACKS=%numtracks%" -T "COMMENT=%comment%" %source% -o %dest%
TOC of the extracted CD
Track | Start | Length | Start sector | End sector
---------------------------------------------------------
1 | 0:00.00 | 27:08.07 | 0 | 122106
2 | 27:08.07 | 9:31.14 | 122107 | 164945
Track 1
Filename Z:\tmp\Neil Metcalfe, Guillaume Viltard & Daniel Thompson\01 - Garden of Water and Light.wav
Pre-gap length 0:00:02.00
Copy aborted
Track 2
Pre-gap length 0:00:03.00
Copy aborted
No tracks could be verified as accurate
There were errors
End of status report
==== Log checksum 6C175988AEBFDE0571751564F110A86DC7578EE376E7FFBD5E4788F0DB8784CA ====
------------------------------------------------------------
Exact Audio Copy V1.0 beta 3 from 29. August 2011
EAC extraction logfile from 22. September 2013, 12:20
Neil Metcalfe, Guillaume Viltard & Daniel Thompson / Garden of Water and Light
Used drive : HL-DT-STDVDRAM GT60N Adapter: 2 ID: 0
Read mode : Secure
Utilize accurate stream : Yes
Defeat audio cache : Yes
Make use of C2 pointers : No
Read offset correction : 103
Overread into Lead-In and Lead-Out : No
Fill up missing offset samples with silence : Yes
Delete leading and trailing silent blocks : No
Null samples used in CRC calculations : Yes
Used interface : Native Win32 interface for Win NT & 2000
Gap handling : Appended to previous track
Used output format : User Defined Encoder
Selected bitrate : 1024 kBit/s
Quality : High
Add ID3 tag : No
Command line compressor : C:\Program Files (x86)\Exact Audio Copy\Flac\flac.exe
Additional command line options : -8 -V -T "ARTIST=%artist%" -T "TITLE=%title%" -T "ALBUM=%albumtitle%" -T "DATE=%year%" -T "TRACKNUMBER=%tracknr1%" -T "GENRE=%genre%" -T "PERFORMER=%albuminterpret%" -T "COMPOSER=%composer%" %haslyrics%--tag-from-file=LYRICS="%lyricsfile%"%haslyrics% -T "ALBUMARTIST=%albumartist%" -T "DISCNUMBER=%cdnumber%" -T "TOTALDISCS=%totalcds%" -T "TOTALTRACKS=%numtracks%" -T "COMMENT=%comment%" %source% -o %dest%
TOC of the extracted CD
Track | Start | Length | Start sector | End sector
---------------------------------------------------------
1 | 0:00.00 | 27:08.07 | 0 | 122106
2 | 27:08.07 | 9:31.14 | 122107 | 164945
Track 1
Filename Z:\tmp\Neil Metcalfe, Guillaume Viltard & Daniel Thompson\01 - Garden of Water and Light.wav
Pre-gap length 0:00:02.00
Peak level 96.6 %
Extraction speed 3.7 X
Track quality 99.9 %
Test CRC C700CA84
Copy CRC C700CA84
Track not present in AccurateRip database
Copy OK
Track 2
Filename Z:\tmp\Neil Metcalfe, Guillaume Viltard & Daniel Thompson\02 - Vimeth.wav
Pre-gap length 0:00:03.00
Peak level 96.6 %
Extraction speed 5.2 X
Track quality 100.0 %
Test CRC 5B0A5719
Copy CRC 5B0A5719
Track not present in AccurateRip database
Copy OK
None of the tracks are present in the AccurateRip database
No errors occurred
End of status report
==== Log checksum B3EE90248B8D30A20A9CEAE2D8E7F311B80BD67F3E767B4616C19F284AD0408C ====
 
.cue
REM DATE 2012
REM DISCID 0C089702
REM COMMENT "ExactAudioCopy v1.0b3"
PERFORMER "Neil Metcalfe, Guillaume Viltard & Daniel Thompson"
TITLE "Garden of Water and Light"
FILE "01 - Garden of Water and Light.wav" WAVE
TRACK 01 AUDIO
TITLE "Garden of Water and Light"
PERFORMER "Neil Metcalfe, Guillaume Viltard & Daniel Thompson"
INDEX 01 00:00:00
TRACK 02 AUDIO
TITLE "Vimeth"
PERFORMER "Neil Metcalfe, Guillaume Viltard & Daniel Thompson"
INDEX 00 27:05:07
FILE "02 - Vimeth.wav" WAVE
INDEX 01 00:00:00

http://www.discogs.com/Neil-Metcalfe-Guillaume-Viltard-Daniel-Thompson-Garden-Of-.../release/4015471
другие релизы
По всем вопросам пишите личное сообщение пользователю M0p94ok.
16:21
158
Нет комментариев. Ваш будет первым!