Вы используете незарегистрированную версию компонента "Вкладки"!

Поиск

(free jazz) [cd] Alexandra Grimal - Seminare Vento (2009), FLAC (tracks+.cue), lossless

(free jazz) [cd] Alexandra Grimal - Seminare Vento (2009), FLAC (tracks+.cue), lossless
Треклист:


Alexandra Grimal - Seminare Vento (2009)

Жанр:free jazz
Год выпуска: 2009
Издатель (лейбл):Free Lance Records / FRL-NS-1001
Формат: FLAC (tracks+.cue)
Битрейт аудио: lossless
Продолжительность 50`35
Источник: what.cd, dtromp
Alexandra Grimal : Saxophones Soprano et Tenor
Giovanni Di Domenico : Piano
Manolo Cabras : Contrebasse
Joao Lobo : Batterie
Recorded on August 6 and 7, 2009

tracks
01. Aranda 06:19
02. Crista 04:08
03. Mitote 05:46
04. Sans Raison 07:41
05. Eh! 06:17
06. Saudades Correspondidas 05:18
07. Passage 06:00
08. Elks Around 02:55
09. Marcher 03:30
10. Saudades Correspondidas (Ellipse) 02:41


 
.log
Exact Audio Copy V0.99 prebeta 5 from 4. May 2009
EAC extraction logfile from 6. October 2010, 10:45
Alexandra Grimal / Seminare Vento
Used drive : PLEXTOR DVDR PX-860A Adapter: 0 ID: 0
Read mode : Secure
Utilize accurate stream : Yes
Defeat audio cache : Yes
Make use of C2 pointers : No
Read offset correction : 96
Overread into Lead-In and Lead-Out : No
Fill up missing offset samples with silence : Yes
Delete leading and trailing silent blocks : No
Null samples used in CRC calculations : Yes
Used interface : Native Win32 interface for Win NT & 2000
Gap handling : Appended to previous track
Used output format : User Defined Encoder
Selected bitrate : 768 kBit/s
Quality : High
Add ID3 tag : No
Command line compressor : C:\Program Files\FLAC\flac.exe
Additional command line options : -8 -V -T "ARTIST=%a" -T "TITLE=%t" -T "ALBUM=%g" -T "DATE=%y" -T "TRACKNUMBER=%n" -T "TOTALTRACKS=%x" -T "GENRE=%m" -T "ALBUM ARTIST=%v" -T "ALBUMARTIST=%v" -T "COMMENT=EAC V0.99 prebeta 5, Secure Mode, Test & Copy, Accurat
TOC of the extracted CD
Track | Start | Length | Start sector | End sector
---------------------------------------------------------
1 | 0:00.00 | 6:19.14 | 0 | 28438
2 | 6:19.14 | 4:08.24 | 28439 | 47062
3 | 10:27.38 | 5:45.68 | 47063 | 73005
4 | 16:13.31 | 7:40.67 | 73006 | 107572
5 | 23:54.23 | 6:16.36 | 107573 | 135808
6 | 30:10.59 | 5:18.17 | 135809 | 159675
7 | 35:29.01 | 5:59.69 | 159676 | 186669
8 | 41:28.70 | 2:55.00 | 186670 | 199794
9 | 44:23.70 | 3:30.22 | 199795 | 215566
10 | 47:54.17 | 2:40.51 | 215567 | 227617
Track 1
Filename S:\DL\Alexandra Grimal - Seminare Vento (2009) [FLAC]\01 - Aranda.wav
Pre-gap length 0:00:02.00
Peak level 98.6 %
Track quality 99.9 %
Test CRC C6A56DC4
Copy CRC C6A56DC4
Track not present in AccurateRip database
Copy OK
Track 2
Filename S:\DL\Alexandra Grimal - Seminare Vento (2009) [FLAC]\02 - Crista.wav
Pre-gap length 0:00:03.45
Peak level 97.3 %
Track quality 100.0 %
Test CRC EEEF3384
Copy CRC EEEF3384
Track not present in AccurateRip database
Copy OK
Track 3
Filename S:\DL\Alexandra Grimal - Seminare Vento (2009) [FLAC]\03 - Mitote.wav
Pre-gap length 0:00:02.68
Peak level 85.2 %
Track quality 100.0 %
Test CRC 5634D3BA
Copy CRC 5634D3BA
Track not present in AccurateRip database
Copy OK
Track 4
Filename S:\DL\Alexandra Grimal - Seminare Vento (2009) [FLAC]\04 - Sans Raison.wav
Peak level 99.1 %
Track quality 99.9 %
Test CRC F70DD2CF
Copy CRC F70DD2CF
Track not present in AccurateRip database
Copy OK
Track 5
Filename S:\DL\Alexandra Grimal - Seminare Vento (2009) [FLAC]\05 - Eh!.wav
Pre-gap length 0:00:04.45
Peak level 99.5 %
Track quality 100.0 %
Test CRC D6FEA7A2
Copy CRC D6FEA7A2
Track not present in AccurateRip database
Copy OK
Track 6
Filename S:\DL\Alexandra Grimal - Seminare Vento (2009) [FLAC]\06 - Saudades Correspondidas.wav
Pre-gap length 0:00:04.16
Peak level 72.2 %
Track quality 100.0 %
Test CRC 1C8FCCE8
Copy CRC 1C8FCCE8
Track not present in AccurateRip database
Copy OK
Track 7
Filename S:\DL\Alexandra Grimal - Seminare Vento (2009) [FLAC]\07 - Passage.wav
Pre-gap length 0:00:02.90
Peak level 98.1 %
Track quality 100.0 %
Test CRC B3A3A5C5
Copy CRC B3A3A5C5
Track not present in AccurateRip database
Copy OK
Track 8
Filename S:\DL\Alexandra Grimal - Seminare Vento (2009) [FLAC]\08 - Elks Around.wav
Peak level 93.6 %
Track quality 99.9 %
Test CRC B818BBEB
Copy CRC B818BBEB
Track not present in AccurateRip database
Copy OK
Track 9
Filename S:\DL\Alexandra Grimal - Seminare Vento (2009) [FLAC]\09 - Marcher.wav
Pre-gap length 0:00:03.70
Peak level 90.5 %
Track quality 100.0 %
Test CRC F5A1D63F
Copy CRC F5A1D63F
Track not present in AccurateRip database
Copy OK
Track 10
Filename S:\DL\Alexandra Grimal - Seminare Vento (2009) [FLAC]\10 - Saudades Correspondidas, Ellipse.wav
Pre-gap length 0:00:07.46
Peak level 96.8 %
Track quality 100.0 %
Test CRC DACC42F3
Copy CRC DACC42F3
Track not present in AccurateRip database
Copy OK
None of the tracks are present in the AccurateRip database
No errors occurred
End of status report
 
.cue
REM GENRE jazz
REM DATE 2009
REM DISCID 8E0BDA0A
REM COMMENT "ExactAudioCopy v0.99pb5"
PERFORMER "Alexandra Grimal"
TITLE "Seminare Vento"
FILE "01 - Aranda.flac" WAVE
TRACK 01 AUDIO
TITLE "Aranda"
PERFORMER "Alexandra Grimal"
INDEX 01 00:00:00
TRACK 02 AUDIO
TITLE "Crista"
PERFORMER "Alexandra Grimal"
INDEX 00 06:15:55
FILE "02 - Crista.flac" WAVE
INDEX 01 00:00:00
TRACK 03 AUDIO
TITLE "Mitote"
PERFORMER "Alexandra Grimal"
INDEX 00 04:05:48
FILE "03 - Mitote.flac" WAVE
INDEX 01 00:00:00
FILE "04 - Sans Raison.flac" WAVE
TRACK 04 AUDIO
TITLE "Sans Raison"
PERFORMER "Alexandra Grimal"
INDEX 01 00:00:00
TRACK 05 AUDIO
TITLE "Eh!"
PERFORMER "Alexandra Grimal"
INDEX 00 07:36:33
FILE "05 - Eh!.flac" WAVE
INDEX 01 00:00:00
TRACK 06 AUDIO
TITLE "Saudades Correspondidas"
PERFORMER "Alexandra Grimal"
INDEX 00 06:12:24
FILE "06 - Saudades Correspondidas.flac" WAVE
INDEX 01 00:00:00
TRACK 07 AUDIO
TITLE "Passage"
PERFORMER "Alexandra Grimal"
INDEX 00 05:15:24
FILE "07 - Passage.flac" WAVE
INDEX 01 00:00:00
FILE "08 - Elks Around.flac" WAVE
TRACK 08 AUDIO
TITLE "Elks Around"
PERFORMER "Alexandra Grimal"
INDEX 01 00:00:00
TRACK 09 AUDIO
TITLE "Marcher"
PERFORMER "Alexandra Grimal"
INDEX 00 02:51:22
FILE "09 - Marcher.flac" WAVE
INDEX 01 00:00:00
TRACK 10 AUDIO
TITLE "Saudades Correspondidas, Ellipse"
PERFORMER "Alexandra Grimal"
INDEX 00 03:22:62
FILE "10 - Saudades Correspondidas, Ellipse.flac" WAVE
INDEX 01 00:00:00
 
.accurip
[CUETools log; Date: 02/06/14 12:55:29; Version: 2.1.4]
[AccurateRip ID: 00151360-00a67f26-8e0bda0a] found.
Track [ CRC | V2 ] Status
01 [3b77ce61|adc3e6f9] (0+3/3) Accurately ripped
02 [59fe97b9|72b19e51] (0+3/3) Accurately ripped
03 [5211f9cc|496d4210] (0+3/3) Accurately ripped
04 [0ac71140|b4293cda] (0+3/3) Accurately ripped
05 [3754efe7|c2abfab7] (0+3/3) Accurately ripped
06 [8372df80|aeb8467a] (0+3/3) Accurately ripped
07 [2b1abdff|7b19d2cc] (0+3/3) Accurately ripped
08 [52f88c71|28ffb5f5] (0+3/3) Accurately ripped
09 [20ced8ad|f8580154] (0+3/3) Accurately ripped
10 [d6f2bc99|2354b982] (0+3/3) Accurately ripped
Track Peak [ CRC32 ] [W/O NULL] [ LOG ]
-- 99.5 [EF0E5A90] [3D99BB78]
01 98.6 [C6A56DC4] [40A7A485] CRC32
02 97.3 [EEEF3384] [CADA8D0D] CRC32
03 85.2 [5634D3BA] [9CC03859] CRC32
04 99.1 [F70DD2CF] [129E1F1A] CRC32
05 99.5 [D6FEA7A2] [148ACFC2] CRC32
06 72.2 [1C8FCCE8] [6CC383F0] CRC32
07 98.1 [B3A3A5C5] [37249B67] CRC32
08 93.6 [B818BBEB] [B5FE7093] CRC32
09 90.5 [F5A1D63F] [7DD66172] CRC32
10 96.8 [DACC42F3] [DDADAA3A] CRC32

другие релизы
По всем вопросам пишите личное сообщение пользователю M0p94ok.
02:26
156
Нет комментариев. Ваш будет первым!