Вы используете незарегистрированную версию компонента "Вкладки"!

Поиск

(Avant-Garde Jazz, Free Improvisation) [CD] Michael Vlatkovich Tritet (w/ Jonas Tauber & Ken Ollis) - Queen Dynamo - 2004, FLAC (tracks+.cue), lossless

(Avant-Garde Jazz, Free Improvisation) [CD] Michael Vlatkovich Tritet (w/ Jonas Tauber & Ken Ollis) - Queen Dynamo - 2004, FLAC (tracks+.cue), lossless
Треклист:
Michael Vlatkovich Tritet / Queen Dynamo
Жанр: Avant-Garde Jazz, Free Improvisation
Носитель: CD
Страна-производитель диска: US
Год издания: 2004
Издатель (лейбл): Origin Records
Номер по каталогу: ORIGIN 82420
Страна: US
Аудиокодек: FLAC (*.flac)
Тип рипа: tracks+.cue
Битрейт аудио: lossless
Продолжительность: 63:51
Источник (релизер): свой фирменный диск
Наличие сканов в содержимом раздачи:
Треклист:
1. Our Costumes Should Tell Us Who We Are And What We Think 6:27
2. The Length Of The Tail Doesn't Really Matter But It Does Have To Be Bushy 10:41
3. My Other Name Is Longer By Two Letters Each 6:24
4. The Daily Parade Dragging Their Lives Behind Them 3:01
5. All Flat Deebee Geegee Too 4:33
6. Blue Peepers 7:10
7. South For Winter 6:26
8. Queen Dynamo 8:57
9. The Blue Robes 9:54
 
Лог создания рипа
Exact Audio Copy V1.0 beta 3 from 29. August 2011
EAC extraction logfile from 19. April 2014, 14:58
Michael Vlatkovich Tritet / Queen Dynamo
Used drive : PIONEER DVD-RW DVR-115D Adapter: 0 ID: 0
Read mode : Secure
Utilize accurate stream : Yes
Defeat audio cache : Yes
Make use of C2 pointers : No
Read offset correction : 48
Overread into Lead-In and Lead-Out : No
Fill up missing offset samples with silence : Yes
Delete leading and trailing silent blocks : No
Null samples used in CRC calculations : Yes
Used interface : Installed external ASPI interface
Gap handling : Appended to previous track
Used output format : User Defined Encoder
Selected bitrate : 896 kBit/s
Quality : High
Add ID3 tag : No
Command line compressor : C:\Program Files\Exact Audio Copy\FLAC\FLAC.EXE
Additional command line options : -6 -V -T "ARTIST=%artist%" -T "TITLE=%title%" -T "ALBUM=%albumtitle%" -T "DATE=%year%" -T "TRACKNUMBER=%tracknr%" -T "GENRE=%genre%" -T "COMMENT=%comment%" -T "BAND=%albuminterpret%" -T "COMPOSER=%composer%" %haslyrics%--tag-from-file=LYRICS="%lyricsfile%"%haslyrics% -T "DISCNUMBER=%cdnumber%" -T "TOTALDISCS=%totalcds%" -T "TOTALTRACKS=%numtracks%" %hascover%--picture="%coverfile%"%hascover% %source% -o %dest%
TOC of the extracted CD
Track | Start | Length | Start sector | End sector
---------------------------------------------------------
1 | 0:00.00 | 6:30.11 | 0 | 29260
2 | 6:30.11 | 10:41.67 | 29261 | 77402
3 | 17:12.03 | 6:26.14 | 77403 | 106366
4 | 23:38.17 | 3:03.49 | 106367 | 120140
5 | 26:41.66 | 4:36.11 | 120141 | 140851
6 | 31:18.02 | 7:11.37 | 140852 | 173213
7 | 38:29.39 | 6:28.04 | 173214 | 202317
8 | 44:57.43 | 8:59.37 | 202318 | 242779
9 | 53:57.05 | 9:54.17 | 242780 | 287346
Track 1
Filename D:\zzz\01 - Our Costumes Should Tell Us Who We Are And What We Think.wav
Pre-gap length 0:00:02.00
Peak level 96.6 %
Extraction speed 4.6 X
Track quality 100.0 %
Test CRC 00E5987E
Copy CRC 00E5987E
Track not present in AccurateRip database
Copy OK
Track 2
Filename D:\zzz\02 - The Length Of The Tail Really Doesn't Matter, But it Does Have To Be Bushy.wav
Pre-gap length 0:00:02.45
Peak level 96.6 %
Extraction speed 5.7 X
Track quality 100.0 %
Test CRC DEFA7007
Copy CRC DEFA7007
Track not present in AccurateRip database
Copy OK
Track 3
Filename D:\zzz\03 - My Other Name Is Longer By Two Letters Each.wav
Pre-gap length 0:00:00.52
Peak level 96.6 %
Extraction speed 6.2 X
Track quality 100.0 %
Test CRC 65361FCD
Copy CRC 65361FCD
Track not present in AccurateRip database
Copy OK
Track 4
Filename D:\zzz\04 - The Daily Parade Dragging Their Lives Behind Them.wav
Pre-gap length 0:00:01.58
Peak level 96.6 %
Extraction speed 5.9 X
Track quality 100.0 %
Test CRC 8528C435
Copy CRC 8528C435
Track not present in AccurateRip database
Copy OK
Track 5
Filename D:\zzz\05 - All Flat Deebee Geebee Too.wav
Pre-gap length 0:00:02.17
Peak level 96.6 %
Extraction speed 6.5 X
Track quality 100.0 %
Test CRC D541C57E
Copy CRC D541C57E
Track not present in AccurateRip database
Copy OK
Track 6
Filename D:\zzz\06 - Blue Peepers.wav
Pre-gap length 0:00:02.65
Peak level 96.6 %
Extraction speed 7.2 X
Track quality 100.0 %
Test CRC D4A92494
Copy CRC D4A92494
Track not present in AccurateRip database
Copy OK
Track 7
Filename D:\zzz\07 - South For Winter.wav
Pre-gap length 0:00:01.26
Peak level 96.6 %
Extraction speed 7.5 X
Track quality 100.0 %
Test CRC F0308E31
Copy CRC F0308E31
Track not present in AccurateRip database
Copy OK
Track 8
Filename D:\zzz\08 - Queen Dynamo.wav
Pre-gap length 0:00:01.63
Peak level 96.6 %
Extraction speed 7.7 X
Track quality 99.9 %
Test CRC BC839E0C
Copy CRC BC839E0C
Track not present in AccurateRip database
Copy OK
Track 9
Filename D:\zzz\09 - The Blue Robes.wav
Pre-gap length 0:00:02.28
Peak level 96.6 %
Extraction speed 8.7 X
Track quality 100.0 %
Test CRC 678A253C
Copy CRC 678A253C
Track not present in AccurateRip database
Copy OK
None of the tracks are present in the AccurateRip database
No errors occurred
End of status report
==== Log checksum 53431DEA934C57F461E9C71D4E1BF05D6E63A683A6336C438C3C54392D27B5EA ====
 
Содержание индексной карты (.CUE)
REM GENRE "Free Jazz"
REM DATE 2004
REM DISCID 6C0EF709
REM COMMENT "ExactAudioCopy v1.0b3"
PERFORMER "Michael Vlatkovich Tritet"
TITLE "Queen Dynamo"
FILE "01 - Our Costumes Should Tell Us Who We Are And What We Think.wav" WAVE
TRACK 01 AUDIO
TITLE "Our Costumes Should Tell Us Who We Are And What We Think"
PERFORMER "Michael Vlatkovich Tritet"
INDEX 01 00:00:00
TRACK 02 AUDIO
TITLE "The Length Of The Tail Really Doesn't Matter, But it Does Have To Be Bushy"
PERFORMER "Michael Vlatkovich Tritet"
INDEX 00 06:27:41
FILE "02 - The Length Of The Tail Really Doesn't Matter, But it Does Have To Be Bushy.wav" WAVE
INDEX 01 00:00:00
TRACK 03 AUDIO
TITLE "My Other Name Is Longer By Two Letters Each"
PERFORMER "Michael Vlatkovich Tritet"
INDEX 00 10:41:15
FILE "03 - My Other Name Is Longer By Two Letters Each.wav" WAVE
INDEX 01 00:00:00
TRACK 04 AUDIO
TITLE "The Daily Parade Dragging Their Lives Behind Them"
PERFORMER "Michael Vlatkovich Tritet"
INDEX 00 06:24:31
FILE "04 - The Daily Parade Dragging Their Lives Behind Them.wav" WAVE
INDEX 01 00:00:00
TRACK 05 AUDIO
TITLE "All Flat Deebee Geebee Too"
PERFORMER "Michael Vlatkovich Tritet"
INDEX 00 03:01:32
FILE "05 - All Flat Deebee Geebee Too.wav" WAVE
INDEX 01 00:00:00
TRACK 06 AUDIO
TITLE "Blue Peepers"
PERFORMER "Michael Vlatkovich Tritet"
INDEX 00 04:33:21
FILE "06 - Blue Peepers.wav" WAVE
INDEX 01 00:00:00
TRACK 07 AUDIO
TITLE "South For Winter"
PERFORMER "Michael Vlatkovich Tritet"
INDEX 00 07:10:11
FILE "07 - South For Winter.wav" WAVE
INDEX 01 00:00:00
TRACK 08 AUDIO
TITLE "Queen Dynamo"
PERFORMER "Michael Vlatkovich Tritet"
INDEX 00 06:26:16
FILE "08 - Queen Dynamo.wav" WAVE
INDEX 01 00:00:00
TRACK 09 AUDIO
TITLE "The Blue Robes"
PERFORMER "Michael Vlatkovich Tritet"
INDEX 00 08:57:09
FILE "09 - The Blue Robes.wav" WAVE
INDEX 01 00:00:00
 
Лог проверки качества
d:\>d:\aucdtect -d/-m0 d:\zzz\*.wav
auCDtect: CD records authenticity detector, version 0.8.2
Copyright (c) 2004 Oleg Berngardt. All rights reserved.
Copyright (c) 2004 Alexander Djourik. All rights reserved.
------------------------------------------------------------
Processing file: [01. Our Costumes Should Tell Us Who We Are And What We Think.wav]
------------------------------------------------------------
This track looks like CDDA with probability 100%
------------------------------------------------------------
Processing file: [02. The Length Of The Tail Really Doesn't Matter, But it Does Have To Be Bushy.wav]
------------------------------------------------------------
This track looks like CDDA with probability 100%
------------------------------------------------------------
Processing file: [03. My Other Name Is Longer By Two Letters Each.wav]
------------------------------------------------------------
This track looks like CDDA with probability 100%
------------------------------------------------------------
Processing file: [04. The Daily Parade Dragging Their Lives Behind Them.wav]
------------------------------------------------------------
This track looks like CDDA with probability 100%
------------------------------------------------------------
Processing file: [05. All Flat Deebee Geebee Too.wav]
------------------------------------------------------------
This track looks like CDDA with probability 100%
------------------------------------------------------------
Processing file: [06. Blue Peepers.wav]
------------------------------------------------------------
This track looks like CDDA with probability 100%
------------------------------------------------------------
Processing file: [07. South For Winter.wav]
------------------------------------------------------------
This track looks like CDDA with probability 100%
------------------------------------------------------------
Processing file: [08. Queen Dynamo.wav]
------------------------------------------------------------
This track looks like CDDA with probability 100%
------------------------------------------------------------
Processing file: [09. The Blue Robes.wav]
------------------------------------------------------------
This track looks like CDDA with probability 100%
------------------------------------------------------------
Final Conclusion:
------------------------------------------------------------
These tracks looks like CDDA with probability 100%
Доп. информация:
 
Album Info & AAJ Review
Music composed by M. Vlatkovich
Recorded and mastered by Sean Flora at Alberta Music Collective
Produced by Michael Vlatkovich
Executive producer: Jonas Tauber
Artwork by Harlan Goldberg
Layout & design by John Bishop/OriginArts
Liner notes: Dorothea Grossman, Los Angeles, CA, September 2003
It's hard to say how the average jazz fan comes to an appreciation of improvised music—and we're talking here spontaneous compositions, not merely an improvised solo in the middle of a mainstream song. One avid listener's introduction to the genre occured some years ago at a concert/lecture in a small state college auditorium. Two young musicians—bass and piano—held forth with a very interesting history of twentieth century jazz, from Louis Armstrong through Ellington and bop and fusion, playing examples of each along the way.
Almost an afterthought, it seemed at the time, was their closer, a five minute song composed on the spot that lit the room up. Vibrant, edgy, full of unexpected twists and spirals and jagged happy little turns. It got the biggest round of applause of the day. Most in attendance, I'd bet—excepting the musicians' friends—had never heard anything quite like that.
Trombonist Michael Vlatkovich's vibrant new disc of improvised music, Queen Dynamo, offers the same kind of interest and excitement. I first came across Vlatkovich on trumpeter Rob Blakelee's Last Minute Gifts' (Louie, 2000), a classic, brassy quartet outing of spontaneously composed songs. On Queen Dynamo Michael Vlatkovich employs a tritet, or trio, with Jonas Tauber on bass, and Ken Ollis in the drummer's seat.
The sound here, on the freer end of the jazz spectrum, is based on the induividual players listening to and reacting to each other, involving themselves in spirited conversations. And the voices in these three-way conversations are quite assured, assertive, without ever devolving to argument or boisterous cacophonies.
Vlatkovich uses the plunger a bit, and he growls at times, but for the most part he employs a straightforward trombone sound. His bandmates share his vision: bassist Jonas Tauber brings his instrument to the front line a good deal of the time, and the guess here is that he's classically trained; his assertive bowing adds some beautiful stretched textures to the sound. Drummer Ken Ollis lays back mostly—very effectively—in a accompanist's mode, sometimes adding just a whispered percussive undercurrent behind the two relative blowhards (meant in the best possible sense of the word) up front. And having just written that, I pause at the keyboard to listen to the drummer add dashes of color behind some dark hues on "South for the Winter."
A first rate set of improvised sounds, very accessible to anyone who's gone there, yet still adventurous and always interesting. You never know where these guys are going next, and that's a big part of the appeal, of course.
 
Состав
Michael Vlatkovich: trombone
Jonas Tauber: bass
Ken Ollis: drums
По всем вопросам пишите личное сообщение пользователю M0p94ok.
02:25
153
Нет комментариев. Ваш будет первым!