Вы используете незарегистрированную версию компонента "Вкладки"!

Поиск

(Avant-Garde Jazz, Modern Composition, Between The Lines) [CD] Giorgio Occhipinti - Histoire - 2003, FLAC (tracks+.cue), lossless

(Avant-Garde Jazz, Modern Composition, Between The Lines) [CD] Giorgio Occhipinti - Histoire - 2003, FLAC (tracks+.cue), lossless
Треклист:
Giorgio Occhipinti / Histoire
Жанр: Avant-Garde Jazz, Modern Composition, Between The Lines
Носитель: CD
Страна-производитель диска: Germany
Год издания: 2003
Издатель (лейбл): Between The Lines
Номер по каталогу: BTL 033 / EFA 63834-2
Страна: Italy
Аудиокодек: FLAC (*.flac)
Тип рипа: tracks+.cue
Битрейт аудио: lossless
Продолжительность: 53:59
Источник (релизер): свой фирменный диск
Наличие сканов в содержимом раздачи:
Треклист:
1. Cantata Perpetuelle Et Hypnotique 16:24
(Dedicated to my idealistic and circular idea of the art and life)
2. Revolution 18:06
(Dedicated to the strength of own ideals)
3. Histoire D'Un Sicilien A Paris 19:20
(Dedicated to the lands that I Love)
 
Лог создания рипа
Exact Audio Copy V1.0 beta 3 from 29. August 2011
EAC extraction logfile from 18. April 2014, 22:00
Giorgio Occhipinti / Histoire
Used drive : TSSTcorpCDDVDW SH-222AB Adapter: 1 ID: 0
Read mode : Secure
Utilize accurate stream : Yes
Defeat audio cache : Yes
Make use of C2 pointers : No
Read offset correction : 6
Overread into Lead-In and Lead-Out : No
Fill up missing offset samples with silence : Yes
Delete leading and trailing silent blocks : No
Null samples used in CRC calculations : Yes
Used interface : Installed external ASPI interface
Gap handling : Appended to previous track
Used output format : User Defined Encoder
Selected bitrate : 896 kBit/s
Quality : High
Add ID3 tag : No
Command line compressor : C:\Program Files\Exact Audio Copy\FLAC\FLAC.EXE
Additional command line options : -6 -V -T "ARTIST=%artist%" -T "TITLE=%title%" -T "ALBUM=%albumtitle%" -T "DATE=%year%" -T "TRACKNUMBER=%tracknr%" -T "GENRE=%genre%" -T "COMMENT=%comment%" -T "BAND=%albuminterpret%" -T "COMPOSER=%composer%" %haslyrics%--tag-from-file=LYRICS="%lyricsfile%"%haslyrics% -T "DISCNUMBER=%cdnumber%" -T "TOTALDISCS=%totalcds%" -T "TOTALTRACKS=%numtracks%" %hascover%--picture="%coverfile%"%hascover% %source% -o %dest%
TOC of the extracted CD
Track | Start | Length | Start sector | End sector
---------------------------------------------------------
1 | 0:00.00 | 16:28.73 | 0 | 74172
2 | 16:28.73 | 18:11.17 | 74173 | 156014
3 | 34:40.15 | 19:19.49 | 156015 | 242988
Track 1
Filename D:\zzz\01 - Cantata Perpetuelle Et Hypnotique.wav
Pre-gap length 0:00:02.00
Peak level 99.3 %
Extraction speed 3.0 X
Track quality 100.0 %
Test CRC 53B6FCC4
Copy CRC 53B6FCC4
Accurately ripped (confidence 1) [28254F83] (AR v2)
Copy OK
Track 2
Filename D:\zzz\02 - Revolution.wav
Pre-gap length 0:00:05.00
Peak level 99.2 %
Extraction speed 3.0 X
Track quality 100.0 %
Test CRC BCB171A2
Copy CRC BCB171A2
Accurately ripped (confidence 1) [F00A8982] (AR v2)
Copy OK
Track 3
Filename D:\zzz\03 - Histoire D'Un Sicilien A Paris.wav
Pre-gap length 0:00:05.00
Peak level 98.7 %
Extraction speed 2.9 X
Track quality 99.9 %
Test CRC ED8F5B77
Copy CRC ED8F5B77
Accurately ripped (confidence 1) [332413FF] (AR v2)
Copy OK
All tracks accurately ripped
No errors occurred
End of status report
==== Log checksum 204454C4BDC2C7991478F072D3FFF9E3954B2C5BFE5875D17C97CA4917EBF542 ====
 
Содержание индексной карты (.CUE)
REM GENRE "Modern Creative"
REM DATE 2003
REM DISCID 200CA703
REM COMMENT "ExactAudioCopy v1.0b3"
PERFORMER "Giorgio Occhipinti"
TITLE "Histoire"
FILE "01 - Cantata Perpetuelle Et Hypnotique.wav" WAVE
TRACK 01 AUDIO
TITLE "Cantata Perpetuelle Et Hypnotique"
PERFORMER "Giorgio Occhipinti"
FLAGS DCP
INDEX 01 00:00:00
TRACK 02 AUDIO
TITLE "Revolution"
PERFORMER "Giorgio Occhipinti"
FLAGS DCP
INDEX 00 16:23:73
FILE "02 - Revolution.wav" WAVE
INDEX 01 00:00:00
TRACK 03 AUDIO
TITLE "Histoire D'Un Sicilien A Paris"
PERFORMER "Giorgio Occhipinti"
FLAGS DCP
INDEX 00 18:06:17
FILE "03 - Histoire D'Un Sicilien A Paris.wav" WAVE
INDEX 01 00:00:00
 
Лог проверки качества
d:\>d:\aucdtect -d/-m0 d:\zzz\*.wav
auCDtect: CD records authenticity detector, version 0.8.2
Copyright (c) 2004 Oleg Berngardt. All rights reserved.
Copyright (c) 2004 Alexander Djourik. All rights reserved.
------------------------------------------------------------
Processing file: [01. Cantata Perpetuelle Et Hypnotique.wav]
------------------------------------------------------------
This track looks like CDDA with probability 100%
------------------------------------------------------------
Processing file: [02. Revolution.wav]
------------------------------------------------------------
This track looks like CDDA with probability 100%
------------------------------------------------------------
Processing file: [03. Histoire D'Un Sicilien A Paris.wav]
------------------------------------------------------------
This track looks like CDDA with probability 99%
------------------------------------------------------------
Final Conclusion:
------------------------------------------------------------
These tracks looks like CDDA with probability 100%
Доп. информация:
 
Album Info & AMG Review
All compositions by Giorgio Occhipinti
Recorded at 4tune Studios, Vienna, October 12 and 14, 2001
Editing and mixing October 15 and 16, 2001
Sound engineers: Martin Klebahn and David Petermann
Photography: Gerald Domenig
Cover-photo: Exhibition Urs Frei at the Sezession, Vienna, 1999
Graphic design: fuhrer vienna
Artistic director: Franz Koglmann
Special thanks to Luigi Santosuosso, Ingrid Karl (Wiener Musik Galerie), Max Nagl and all the musicians of the group
Liner notes: Giorgio Occhipinti
The problem with music that cannot be pigeonholed is that it tends to make people uncomfortable, something that might amuse Italian composer/pianist Giorgio Occhipinti, who as much as any other musician in recent memory obfuscates the border between classical music and jazz. The word "obfuscates" is probably on target when you consider how Occhipinti describes in his liner notes what he is trying to accomplish on his Histoire recording: "...Heterogeneous idioms and emanations of the creative cosmos filtered and subsumed into an exclusive code of my own, perpetually devoted to the screening of globality and circularity." Well, there are three pieces, each 15 to 20 minutes, and each utilizing the odd instrumentation of a string sextet, two clarinets, piano, and drums, often giving the group's sound a somewhat thin and airy timbre. There is a consistently bird-like tweeting, a result of the violins and clarinets, which cry out for complementary brass. Occhipinti proudly covers historical ground: at times he composes with an eye to the distant past, reflecting his love for "ancient music," but he also appreciates the present, and a piece such as "Revolution" combines some fine avant-garde piano improvisation with lengthy sections of chamber music that are subtly subverted. Little that is here is likely to grab you; a more common reaction might be to raise an eyebrow in wonder. It does not fit any categories easily, not even ones on the edges that self-consciously do not fit anywhere else. Perhaps it is quintessentially third stream, pointing to something entirely new. At times there is great density, at others a lightness of being. The improvisational element, while important, is not critical to the realization of the compositions, and it is often difficult to tell, other than for the piano and occasional clarinet solos, which parts are improvised. Sometimes sections seem to drag on too long, but there is a sense that much of it is sophisticated and often daring. There is enough to offend almost everyone: for the jazz-oriented it is likely to sound too "straight," much too "classical." For those coming from the orientation of classical music, it may not sound "serious" enough or as with some of Alfred Schnittke's marvelous "Symphony No. 1," naysayers might think it smacks of gimmickry. All of which, of course, makes it all the more seductive.
 
Состав
Global Music Nonetto:
Giorgio Occhipinti: piano, direction
Sonia Slany: violin
Joanna Lewis: violin
Nico Ciricugno: viola
Tiziana Cavaleri: cello
Giuseppe Guarrella: double bass
Matteo Gallini: soprano and bass clarinet
Olivia Bignardi: soprano and bass clarinet
Antonio Moncada: drums, kettledrums
По всем вопросам пишите личное сообщение пользователю M0p94ok.
02:24
150
Нет комментариев. Ваш будет первым!