Вы используете незарегистрированную версию компонента "Вкладки"!

Поиск

(Free Improvisation, Free Jazz) [CD] The Curators (Mikko Innanen, James Ilgenfritz, Joe Hertenstein) - Thank You - 2013, FLAC (image+.cue), lossless

(Free Improvisation, Free Jazz) [CD] The Curators (Mikko Innanen, James Ilgenfritz, Joe Hertenstein) - Thank You - 2013, FLAC (image+.cue), lossless
Треклист:
The Curators / Thank You
Жанр: Free Improvisation, Free Jazz
Носитель: CD
Страна-производитель диска: US
Год издания: 2013
Издатель (лейбл): Engine Studios
Номер по каталогу: e054
Аудиокодек: FLAC (*.flac)
Тип рипа: image+.cue
Битрейт аудио: lossless
Продолжительность: 57:20
Источник (релизер): CD
Наличие сканов в содержимом раздачи: нет
Треклист:
1 For Stopping By 4:39
2 For The Offer 5:16
3 For Saving A Seat 3:16
4 For Being Understanding 7:34
5 For Not Littering 8:15
6 For Your Patience 2:03
7 For Thinking Of Us In This Difficult Time 7:44
8 For Listening 6:54
9 For The Invite 5:56
10 For Sticking Around Til The End 6:09
 
Лог создания рипа
Exact Audio Copy V1.0 beta 2 from 29. April 2011
EAC extraction logfile from 3. June 2014, 11:18
The Curators / Thank You
Used drive : Optiarc DVD RW AD-7170A Adapter: 0 ID: 0
Read mode : Secure
Utilize accurate stream : Yes
Defeat audio cache : Yes
Make use of C2 pointers : No
Read offset correction : 48
Overread into Lead-In and Lead-Out : No
Fill up missing offset samples with silence : Yes
Delete leading and trailing silent blocks : No
Null samples used in CRC calculations : Yes
Used interface : Native Win32 interface for Win NT & 2000
Used output format : User Defined Encoder
Selected bitrate : 320 kBit/s
Quality : High
Add ID3 tag : No
Command line compressor : C:\Program Files\Exact Audio Copy\Flac\flac.exe
Additional command line options : -V -8 -T "Date=%year%" -T "Genre=%genre%" %source%
TOC of the extracted CD
Track | Start | Length | Start sector | End sector
---------------------------------------------------------
1 | 0:00.00 | 4:18.04 | 0 | 19353
2 | 4:18.04 | 5:17.13 | 19354 | 43141
3 | 9:35.17 | 3:15.38 | 43142 | 57804
4 | 12:50.55 | 7:33.65 | 57805 | 91844
5 | 20:24.45 | 8:15.03 | 91845 | 128972
6 | 28:39.48 | 2:01.68 | 128973 | 138115
7 | 30:41.41 | 7:42.55 | 138116 | 172820
8 | 38:24.21 | 6:48.67 | 172821 | 203487
9 | 45:13.13 | 5:57.15 | 203488 | 230277
10 | 51:10.28 | 6:10.23 | 230278 | 258050
Range status and errors
Selected range
Filename K:\ЕАС\The Curators - Thank You.wav
Peak level 100.0 %
Extraction speed 2.0 X
Range quality 100.0 %
Test CRC C255C8A2
Copy CRC C255C8A2
Copy OK
No errors occurred
AccurateRip summary
Track 1 not present in database
Track 2 not present in database
Track 3 not present in database
Track 4 not present in database
Track 5 not present in database
Track 6 not present in database
Track 7 not present in database
Track 8 not present in database
Track 9 not present in database
Track 10 not present in database
None of the tracks are present in the AccurateRip database
End of status report
==== Log checksum 2576B2043BC5F066DDCCB3F11AD36DF1265CFF365BAD091D2E7494AC390CC68D ====
 
Содержание индексной карты (.CUE)
REM GENRE Jazz
REM DATE 2013
REM DISCID 790D700A
REM COMMENT "ExactAudioCopy v1.0b2"
PERFORMER "The Curators"
TITLE "Thank You "
FILE "The Curators - Thank You.flac" WAVE
TRACK 01 AUDIO
TITLE "For Stopping By "
PERFORMER "The Curators"
ISRC 000000000000
INDEX 01 00:00:00
TRACK 02 AUDIO
TITLE "For The Offer "
PERFORMER "The Curators"
ISRC 000000000000
INDEX 01 04:18:04
TRACK 03 AUDIO
TITLE "For Saving A Seat"
PERFORMER "The Curators"
ISRC 000000000000
INDEX 01 09:35:17
TRACK 04 AUDIO
TITLE "For Being Understanding"
PERFORMER "The Curators"
ISRC 000000000000
INDEX 01 12:50:55
TRACK 05 AUDIO
TITLE "For Not Littering"
PERFORMER "The Curators"
ISRC 000000000000
INDEX 01 20:24:45
TRACK 06 AUDIO
TITLE "For Your Patience"
PERFORMER "The Curators"
ISRC 000000000000
INDEX 01 28:39:48
TRACK 07 AUDIO
TITLE "For Thinking Of Us In This Difficult Time"
PERFORMER "The Curators"
ISRC 000000000000
INDEX 01 30:41:41
TRACK 08 AUDIO
TITLE "For Listening"
PERFORMER "The Curators"
ISRC 000000000000
INDEX 01 38:24:21
TRACK 09 AUDIO
TITLE "For The Invite"
PERFORMER "The Curators"
ISRC 000000000000
INDEX 01 45:13:13
TRACK 10 AUDIO
TITLE "For Sticking Around Til The End"
PERFORMER "The Curators"
ISRC 000000000000
INDEX 01 51:10:28
Доп. информация: Recorded at Have-A-Heart Studio, 5 June 2012
 
Об альбоме (сборнике)
"Jazz listeners rejoice and welcome a trio of newer cats who traffic in high-quality improvisation while appealing to the bulk of humanity not on the intergalactic trip! The Curators play with a unique ferauciousness (fur-rawk-ush-ness) ferocity, raucousness, and deliciousness all rolled into one made-up word. Drummer Joe Hertenstein plays with a noble caveman essence, ham-fisted and unrestrained. From that rhythmic core comes a guttural procession of bass wang and both amplified and acoustic horn. The attitude is punky and brash, and The Curators thank you for listening."-Engine
"Multi-part compositions, not such a far cry from Mingus volatile style, have enough meat to sustain deconstruction and evade the trap of eclecticism."-The Wire
 
Состав
Bass – James Ilgenfritz
Percussion – Joe Hertenstein
Saxophone – Mikko Innanen
По всем вопросам пишите личное сообщение пользователю M0p94ok.
02:27
198
Нет комментариев. Ваш будет первым!