Вы используете незарегистрированную версию компонента "Вкладки"!

Поиск

(free jazz) [cd] 774th Street Quartet(Guillermo Gregorio, Keefe Jackson, Thomas Mejer, Aram Shelton) - A Rare Thing 2005, FLAC (tracks+.cue), lossless

(free jazz) [cd] 774th Street Quartet(Guillermo Gregorio, Keefe Jackson, Thomas Mejer, Aram Shelton) - A Rare Thing 2005, FLAC (tracks+.cue), lossless
Треклист:
(free jazz) [cd] 774th Street Quartet(Guillermo Gregorio, Keefe Jackson, Thomas Mejer, Aram Shelton) - A Rare Thing 2005, FLAC (tracks+.cue), lossless


Guillermo Gregorio, Keefe Jackson, Thomas Mejer, Aram Shelton
774th Street Quartet - A Rare Thing 2005
Жанр: free jazz
Год выпуска: 2005
Издатель (лейбл):Bloody Murder Records / BM 101-1
Формат: FLAC (tracks+.cue)
Битрейт аудио: lossless
Продолжительность 57`46
Источник: what.cd
Guillermo Gregorio (alto saxophone, clarinet {left channel})
Keefe Jackson (tenor saxophone, bass clarinet)
Thomas Mejer (contrabass saxophone)
Aram Shelton (alto saxophone, clarinet, processing {right channel})
Recorded by Steve Wagner and Eric Butkus at Riverside Studio, Chicago, April 1, 2005
Published by Bloody Murder Music
Guillermo Gregorio, Keefe Jackson, Aram Shelton - BMI
Thomas Mejer - SUISA

tracks



 
.log
Exact Audio Copy V1.0 beta 3 from 29. August 2011
EAC extraction logfile from 19. March 2013, 1:03
Unknown Artist / Unknown Title
Used drive : HL-DT-STDVDRAM GH41N Adapter: 2 ID: 1
Read mode : Secure
Utilize accurate stream : Yes
Defeat audio cache : Yes
Make use of C2 pointers : No
Read offset correction : 667
Overread into Lead-In and Lead-Out : No
Fill up missing offset samples with silence : Yes
Delete leading and trailing silent blocks : No
Null samples used in CRC calculations : Yes
Used interface : Native Win32 interface for Win NT & 2000
Gap handling : Appended to previous track
Used output format : User Defined Encoder
Selected bitrate : 1024 kBit/s
Quality : High
Add ID3 tag : No
Command line compressor : C:\Program Files (x86)\Exact Audio Copy\Flac\flac.exe
Additional command line options : -8 -V -T "ARTIST=%artist%" -T "TITLE=%title%" -T "ALBUM=%albumtitle%" -T "DATE=%year%" -T "TRACKNUMBER=%tracknr%" -T "GENRE=%genre%" -T "PERFORMER=%albuminterpret%" -T "COMPOSER=%composer%" %haslyrics%--tag-from-file=LYRICS="%lyricsfile%"%haslyrics% -T "ALBUMARTIST=%albumartist%" -T "DISCNUMBER=%cdnumber%" -T "TOTALDISCS=%totalcds%" -T "TOTALTRACKS=%numtracks%" -T "COMMENT=%comment%" %source% -o %dest%
TOC of the extracted CD
Track | Start | Length | Start sector | End sector
---------------------------------------------------------
1 | 0:00.00 | 5:54.16 | 0 | 26565
2 | 5:54.16 | 5:19.45 | 26566 | 50535
3 | 11:13.61 | 6:15.56 | 50536 | 78716
4 | 17:29.42 | 5:40.07 | 78717 | 104223
5 | 23:09.49 | 4:12.69 | 104224 | 123192
6 | 27:22.43 | 12:03.49 | 123193 | 177466
7 | 39:26.17 | 8:57.31 | 177467 | 217772
8 | 48:23.48 | 4:05.15 | 217773 | 236162
9 | 52:28.63 | 5:17.41 | 236163 | 259978
Track 1
Filename C:\Users\╬\Music\774th Street Quartet - A Rare Thing\01 Fastened.wav
Pre-gap length 0:00:02.00
Peak level 99.1 %
Extraction speed 1.0 X
Track quality 99.9 %
Test CRC AE5CEAFC
Copy CRC AE5CEAFC
Track not present in AccurateRip database
Copy OK
Track 2
Filename C:\Users\╬\Music\774th Street Quartet - A Rare Thing\02 They All Change.wav
Pre-gap length 0:00:02.00
Peak level 99.5 %
Extraction speed 1.3 X
Track quality 100.0 %
Test CRC CEC6BFDB
Copy CRC CEC6BFDB
Track not present in AccurateRip database
Copy OK
Track 3
Filename C:\Users\╬\Music\774th Street Quartet - A Rare Thing\03 Otra Musica 3.wav
Pre-gap length 0:00:02.00
Peak level 99.0 %
Extraction speed 1.5 X
Track quality 100.0 %
Test CRC 370EFF75
Copy CRC 370EFF75
Track not present in AccurateRip database
Copy OK
Track 4
Filename C:\Users\╬\Music\774th Street Quartet - A Rare Thing\04 Washburne and Woodlawn.wav
Pre-gap length 0:00:02.00
Peak level 99.0 %
Extraction speed 1.7 X
Track quality 100.0 %
Test CRC BA63E291
Copy CRC BA63E291
Track not present in AccurateRip database
Copy OK
Track 5
Filename C:\Users\╬\Music\774th Street Quartet - A Rare Thing\05 Riviera.wav
Pre-gap length 0:00:02.00
Peak level 98.8 %
Extraction speed 1.7 X
Track quality 100.0 %
Test CRC 088558EB
Copy CRC 088558EB
Track not present in AccurateRip database
Copy OK
Track 6
Filename C:\Users\╬\Music\774th Street Quartet - A Rare Thing\06 Wabash and Wabansia.wav
Pre-gap length 0:00:02.00
Peak level 99.0 %
Extraction speed 2.1 X
Track quality 100.0 %
Test CRC 9E53928E
Copy CRC 9E53928E
Track not present in AccurateRip database
Copy OK
Track 7
Filename C:\Users\╬\Music\774th Street Quartet - A Rare Thing\07 About Now.wav
Pre-gap length 0:00:02.00
Peak level 99.3 %
Extraction speed 2.3 X
Track quality 100.0 %
Test CRC 2C4CD80B
Copy CRC 2C4CD80B
Track not present in AccurateRip database
Copy OK
Track 8
Filename C:\Users\╬\Music\774th Street Quartet - A Rare Thing\08 Otra Musica 5.wav
Pre-gap length 0:00:02.00
Peak level 99.0 %
Extraction speed 2.2 X
Track quality 100.0 %
Test CRC B48CD5FA
Copy CRC B48CD5FA
Track not present in AccurateRip database
Copy OK
Track 9
Filename C:\Users\╬\Music\774th Street Quartet - A Rare Thing\09 A Rare Thing.wav
Pre-gap length 0:00:02.00
Peak level 99.0 %
Extraction speed 2.5 X
Track quality 100.0 %
Test CRC 3611AA84
Copy CRC 3611AA84
Track not present in AccurateRip database
Copy OK
None of the tracks are present in the AccurateRip database
No errors occurred
End of status report
---- CUETools DB Plugin V2.1.3
[CTDB TOCID: R1N9ZVSrVyTWrw2aV8txsd1z2UQ-] disk not present in database, Submit result: R1N9ZVSrVyTWrw2aV8txsd1z2UQ- has been uploaded
==== Log checksum BA9D83A8B9E27D41FC000DCEFC4A84483DC8BB1DED5778B1366940DA759C6387 ====
 
.cue
REM DISCID 720D8A09
REM COMMENT "ExactAudioCopy v1.0b3"
PERFORMER "774th Street Quartet"
TITLE "A Rare Thing"
FILE "01 Fastened.wav" WAVE
TRACK 01 AUDIO
TITLE "Fastened"
PERFORMER "774th Street Quartet"
INDEX 01 00:00:00
TRACK 02 AUDIO
TITLE "They All Change"
PERFORMER "774th Street Quartet"
INDEX 00 05:52:16
FILE "02 They All Change.wav" WAVE
INDEX 01 00:00:00
TRACK 03 AUDIO
TITLE "Otra Musica 3"
PERFORMER "774th Street Quartet"
INDEX 00 05:17:45
FILE "03 Otra Musica 3.wav" WAVE
INDEX 01 00:00:00
TRACK 04 AUDIO
TITLE "Washburne and Woodlawn"
PERFORMER "774th Street Quartet"
INDEX 00 06:13:56
FILE "04 Washburne and Woodlawn.wav" WAVE
INDEX 01 00:00:00
TRACK 05 AUDIO
TITLE "Riviera"
PERFORMER "774th Street Quartet"
INDEX 00 05:38:07
FILE "05 Riviera.wav" WAVE
INDEX 01 00:00:00
TRACK 06 AUDIO
TITLE "Wabash and Wabansia"
PERFORMER "774th Street Quartet"
INDEX 00 04:10:69
FILE "06 Wabash and Wabansia.wav" WAVE
INDEX 01 00:00:00
TRACK 07 AUDIO
TITLE "About Now"
PERFORMER "774th Street Quartet"
INDEX 00 12:01:49
FILE "07 About Now.wav" WAVE
INDEX 01 00:00:00
TRACK 08 AUDIO
TITLE "Otra Musica 5"
PERFORMER "774th Street Quartet"
INDEX 00 08:55:31
FILE "08 Otra Musica 5.wav" WAVE
INDEX 01 00:00:00
TRACK 09 AUDIO
TITLE "A Rare Thing"
PERFORMER "774th Street Quartet"
INDEX 00 04:03:15
FILE "09 A Rare Thing.wav" WAVE
INDEX 01 00:00:00
http://www.discogs.com/774th-Street-Quartet-A-Rare-Thing/release/5517527
другие релизы
По всем вопросам пишите личное сообщение пользователю M0p94ok.
17:25
201
Нет комментариев. Ваш будет первым!