Вы используете незарегистрированную версию компонента "Вкладки"!

Поиск

(free jazz) [cd] Keefe Jackson's Project Project - Just Like This (2007), FLAC (tracks+.cue), lossless

(free jazz) [cd] Keefe Jackson's Project Project - Just Like This (2007), FLAC (tracks+.cue), lossless
Треклист:
(free jazz) [cd] Keefe Jackson's Project Project - Just Like This (2007), FLAC (tracks+.cue), lossless


Keefe Jackson's Project Project - Just Like This (2007)

Жанр: free jazz
Год выпуска: 2007
Издатель (лейбл):Delmark Records / DE 580
Формат: FLAC (tracks+.cue)
Битрейт аудио: lossless
Продолжительность 56`00
Источник: what.cd
Alto Saxophone, Baritone Saxophone – Dave Rempis
Alto Saxophone, Clarinet – Guillermo Gregorio
Bass – Anton Hatwich
Bass Clarinet – Jason Stein (2)
Clarinet – James Falzone
Composed By – Frank Rosaly (tracks: 6), Keefe Jackson (tracks: 1 to 5)
Cornet – Josh Berman
Drums – Frank Rosaly
Tenor Saxophone, Bass Clarinet – Keefe Jackson
Trombone – Jeb Bishop, Nick Broste
Trumpet, Flugelhorn – Jaimie Branch
Tuba – Marc Unternährer

tracks

1 Dragon Fly 11:23
2 The Grass Is Greener 8:52
3 Titled 10:02
4 Just Like This 8:49
5 Which Well 7:51
6 Wind-up Toy 8:46


 
.log
Exact Audio Copy V1.0 beta 3 from 29. August 2011
EAC extraction logfile from 16. August 2014, 19:50
Keefe Jackson's Project Project / Just Like This
Used drive : Optiarc DVD RW AD-7240S Adapter: 1 ID: 0
Read mode : Secure
Utilize accurate stream : Yes
Defeat audio cache : Yes
Make use of C2 pointers : No
Read offset correction : 48
Overread into Lead-In and Lead-Out : No
Fill up missing offset samples with silence : Yes
Delete leading and trailing silent blocks : No
Null samples used in CRC calculations : Yes
Used interface : Native Win32 interface for Win NT & 2000
Gap handling : Appended to previous track
Used output format : User Defined Encoder
Selected bitrate : 1024 kBit/s
Quality : High
Add ID3 tag : No
Command line compressor : C:\Program Files (x86)\FLAC\flac.exe
Additional command line options : -8 -V -T "ARTIST=%artist%" -T "TITLE=%title%" -T "ALBUM=%albumtitle%" -T "DATE=%year%" -T "TRACKNUMBER=%tracknr%" -T "GENRE=%genre%" -T "PERFORMER=%albuminterpret%" -T "COMPOSER=%composer%" %haslyrics%--tag-from-file=LYRICS="%lyricsfile%"%haslyrics% -T "ALBUMARTIST=%albumartist%" -T "DISCNUMBER=%cdnumber%" -T "TOTALDISCS=%totalcds%" -T "TOTALTRACKS=%numtracks%" -T "COMMENT=%comment%" %source% -o %dest%
TOC of the extracted CD
Track | Start | Length | Start sector | End sector
---------------------------------------------------------
1 | 0:00.00 | 11:26.11 | 0 | 51460
2 | 11:26.11 | 8:56.50 | 51461 | 91710
3 | 20:22.61 | 10:05.39 | 91711 | 137124
4 | 30:28.25 | 8:52.09 | 137125 | 177033
5 | 39:20.34 | 7:53.63 | 177034 | 212571
6 | 47:14.22 | 8:46.03 | 212572 | 252024
Track 1
Filename D:\D-MY UPS\Library Rips\Keefe Jackson's Project Project - Just Like This (2007)\01 - Dragon Fly.wav
Pre-gap length 0:00:02.00
Peak level 100.0 %
Extraction speed 2.8 X
Track quality 100.0 %
Test CRC 7B2DCA7E
Copy CRC 7B2DCA7E
Accurately ripped (confidence 2) [F62537E2] (AR v1)
Copy OK
Track 2
Filename D:\D-MY UPS\Library Rips\Keefe Jackson's Project Project - Just Like This (2007)\02 - The Grass is Greener.wav
Pre-gap length 0:00:03.00
Peak level 100.0 %
Extraction speed 3.4 X
Track quality 100.0 %
Test CRC D7264D25
Copy CRC D7264D25
Accurately ripped (confidence 2) [80938A28] (AR v1)
Copy OK
Track 3
Filename D:\D-MY UPS\Library Rips\Keefe Jackson's Project Project - Just Like This (2007)\03 - Titled.wav
Pre-gap length 0:00:03.76
Peak level 100.0 %
Extraction speed 3.7 X
Track quality 99.9 %
Test CRC 335A3662
Copy CRC 335A3662
Accurately ripped (confidence 2) [7C85220A] (AR v1)
Copy OK
Track 4
Filename D:\D-MY UPS\Library Rips\Keefe Jackson's Project Project - Just Like This (2007)\04 - Just Like This.wav
Pre-gap length 0:00:03.00
Peak level 100.0 %
Extraction speed 4.2 X
Track quality 100.0 %
Test CRC E9C8FC11
Copy CRC E9C8FC11
Accurately ripped (confidence 2) [4309C029] (AR v1)
Copy OK
Track 5
Filename D:\D-MY UPS\Library Rips\Keefe Jackson's Project Project - Just Like This (2007)\05 - Which Well.wav
Pre-gap length 0:00:02.76
Peak level 100.0 %
Extraction speed 4.5 X
Track quality 100.0 %
Test CRC D6D52F12
Copy CRC D6D52F12
Accurately ripped (confidence 2) [391AE486] (AR v1)
Copy OK
Track 6
Filename D:\D-MY UPS\Library Rips\Keefe Jackson's Project Project - Just Like This (2007)\06 - Wind-Up Toy.wav
Pre-gap length 0:00:02.76
Peak level 100.0 %
Extraction speed 4.9 X
Track quality 100.0 %
Test CRC CA93F0F4
Copy CRC CA93F0F4
Accurately ripped (confidence 2) [17AE6AC8] (AR v1)
Copy OK
All tracks accurately ripped
No errors occurred
End of status report
---- CUETools DB Plugin V2.1.3
[CTDB TOCID: XgJiRoT6iAiSdE6jCLYeHEz5EWQ-] found, Submit result: XgJiRoT6iAiSdE6jCLYeHEz5EWQ- has been confirmed
[f1c43fcd] (1/1) Accurately ripped
==== Log checksum 07FFD54AE323AC72A5CA83AD27577823E0B35B6C2D893F7924FD8CE4E264ED1D ====
 
.cue
REM GENRE Jazz
REM DATE 2007
REM DISCID 4D0D2006
REM COMMENT "ExactAudioCopy v1.0b3"
PERFORMER "Keefe Jackson's Project Project"
TITLE "Just Like This"
FILE "01 - Dragon Fly.wav" WAVE
TRACK 01 AUDIO
TITLE "Dragon Fly"
PERFORMER "Keefe Jackson's Project Project"
ISRC US4B90758001
FLAGS DCP
INDEX 01 00:00:00
TRACK 02 AUDIO
TITLE "The Grass is Greener"
PERFORMER "Keefe Jackson's Project Project"
ISRC US4B90758002
FLAGS DCP
INDEX 00 11:23:11
FILE "02 - The Grass is Greener.wav" WAVE
INDEX 01 00:00:00
TRACK 03 AUDIO
TITLE "Titled"
PERFORMER "Keefe Jackson's Project Project"
ISRC US4B90758003
FLAGS DCP
INDEX 00 08:52:68
FILE "03 - Titled.wav" WAVE
INDEX 01 00:00:00
TRACK 04 AUDIO
TITLE "Just Like This"
PERFORMER "Keefe Jackson's Project Project"
ISRC US4B90758004
FLAGS DCP
INDEX 00 10:02:39
FILE "04 - Just Like This.wav" WAVE
INDEX 01 00:00:00
TRACK 05 AUDIO
TITLE "Which Well"
PERFORMER "Keefe Jackson's Project Project"
ISRC US4B90758005
FLAGS DCP
INDEX 00 08:49:27
FILE "05 - Which Well.wav" WAVE
INDEX 01 00:00:00
TRACK 06 AUDIO
TITLE "Wind-Up Toy"
PERFORMER "Keefe Jackson's Project Project"
ISRC US4B90758006
FLAGS DCP
INDEX 00 07:51:06
FILE "06 - Wind-Up Toy.wav" WAVE
INDEX 01 00:00:00
http://www.discogs.com/Keefe-Jacksons-Project-Project-Just-Like-This/release/2097229
другие релизы
По всем вопросам пишите личное сообщение пользователю M0p94ok.
17:25
326
Нет комментариев. Ваш будет первым!