Поиск

(Free Improvisation, Free Jazz) [CD] Brötzmann / Wilkinson Quartet (Peter Brotzmann, Alan Wilkinson, Simon H. Fell, Willi Kellers) - One night in Burmantofts - 2007, FLAC (tracks+.cue), lossless

(Free Improvisation, Free Jazz) [CD] Brötzmann / Wilkinson Quartet (Peter Brotzmann, Alan Wilkinson, Simon H. Fell, Willi Kellers) - One night in Burmantofts - 2007, FLAC (tracks+.cue), lossless
Треклист:
Brötzmann / Wilkinson Quartet - One night in Burmantofts
Жанр: Free Improvisation, Free Jazz
Носитель: CD
Страна-производитель диска (релиза): UK
Год издания: 2007
Издатель (лейбл): Bo'Weavil Recordings
Номер по каталогу: Weavil 27 CD
Аудиокодек: FLAC (*.flac)
Тип рипа: tracks+.cue
Битрейт аудио: lossless
Продолжительность: 69:16
Источник (релизер): cd
Наличие сканов в содержимом раздачи: нет
Треклист:
1. Greetings Herr B and Herr K (11.07)
2. Cormorant number two (26.43)
3. Bird flew (23.59)
4. All back to Paul's (07.28)
 
Лог создания рипа
Exact Audio Copy V1.0 beta 3 from 29. August 2011
EAC extraction logfile from 30. November 2015, 16:02
Brotzmann-Wilkinson Quartet / One Night in Bermantofts
Used drive : ASUS DRW-24F1ST a Adapter: 0 ID: 0
Read mode : Secure
Utilize accurate stream : Yes
Defeat audio cache : Yes
Make use of C2 pointers : No
Read offset correction : 6
Overread into Lead-In and Lead-Out : No
Fill up missing offset samples with silence : Yes
Delete leading and trailing silent blocks : No
Null samples used in CRC calculations : Yes
Used interface : Native Win32 interface for Win NT & 2000
Gap handling : Appended to previous track
Used output format : User Defined Encoder
Selected bitrate : 320 kBit/s
Quality : High
Add ID3 tag : No
Command line compressor : D:\Programs\Exact Audio Copy\Flac\flac.exe
Additional command line options : -V -8 -T "Genre=%genre%" -T "Artist=%artist%" -T "Title=%title%" -T "Album=%albumtitle%" -T "Date=%year%" -T "Tracknumber=%tracknr%" -T "Comment=%comment%" %source%
TOC of the extracted CD
Track | Start | Length | Start sector | End sector
---------------------------------------------------------
1 | 0:00.00 | 11:07.35 | 0 | 50059
2 | 11:07.35 | 26:42.74 | 50060 | 170283
3 | 37:50.34 | 23:58.73 | 170284 | 278206
4 | 61:49.32 | 7:27.42 | 278207 | 311773
Track 1
Filename D:\EAC\01 Greetings Herr B and Herr K.wav
Pre-gap length 0:00:02.00
Peak level 97.5 %
Extraction speed 5.2 X
Track quality 100.0 %
Test CRC F6EDA6A0
Copy CRC F6EDA6A0
Track not present in AccurateRip database
Copy OK
Track 2
Filename D:\EAC\02 Cormorant Number Two.wav
Peak level 97.9 %
Extraction speed 7.1 X
Track quality 100.0 %
Test CRC 6A3E9883
Copy CRC 6A3E9883
Track not present in AccurateRip database
Copy OK
Track 3
Filename D:\EAC\03 Bird Flew.wav
Peak level 97.6 %
Extraction speed 8.8 X
Track quality 100.0 %
Test CRC E72D1304
Copy CRC E72D1304
Track not present in AccurateRip database
Copy OK
Track 4
Filename D:\EAC\04 All Back to Paul's.wav
Peak level 97.8 %
Extraction speed 8.5 X
Track quality 99.9 %
Test CRC 6D30679E
Copy CRC 6D30679E
Track not present in AccurateRip database
Copy OK
None of the tracks are present in the AccurateRip database
No errors occurred
End of status report
==== Log checksum C6B72C0C455ACE8ACFE4B882DB8DE6EEA6D0797B14EB4123D91181606117FEA7 ====
 
Содержание индексной карты (.CUE)
REM GENRE Jazz
REM DATE 2007
REM DISCID 30103C04
REM COMMENT "ExactAudioCopy v1.0b3"
CATALOG 5051078908724
PERFORMER "Brotzmann-Wilkinson Quartet"
TITLE "One Night in Bermantofts"
FILE "01 Greetings Herr B and Herr K.wav" WAVE
TRACK 01 AUDIO
TITLE "Greetings Herr B and Herr K"
PERFORMER "Brotzmann-Wilkinson Quartet"
ISRC GBRCR0702701
INDEX 01 00:00:00
FILE "02 Cormorant Number Two.wav" WAVE
TRACK 02 AUDIO
TITLE "Cormorant Number Two"
PERFORMER "Brotzmann-Wilkinson Quartet"
ISRC GBRCR0702702
INDEX 01 00:00:00
FILE "03 Bird Flew.wav" WAVE
TRACK 03 AUDIO
TITLE "Bird Flew"
PERFORMER "Brotzmann-Wilkinson Quartet"
ISRC GBRCR0702703
INDEX 01 00:00:00
FILE "04 All Back to Paul's.wav" WAVE
TRACK 04 AUDIO
TITLE "All Back to Paul's"
PERFORMER "Brotzmann-Wilkinson Quartet"
ISRC GBRCR0702704
INDEX 01 00:00:00
Доп. информация: Recorded at The Irish Centre, Leeds on 11 November 1996.
 
Об альбоме (сборнике)
"A long overdue meeting of two of the titans of the saxophone today. Alan Wilkinson (alto, baritone & voice) and Peter Brötzmann (clarinet, tarogato & tenor) together with Willi Kellers (drums) and Simon H. Fell (bass) blow up one hell of a storm. The individuals on this recording consciously commit, putting themselves 'out there,' over the edge. The energy, the electricity, generated by saxophonists Wilkinson and Brötzmann, is a result of their fearless approach to the precipice and their willingness to stare, unblinking, into the abyss. And yet while this music, free jazz, improv, call it what you will, exists at the boundary of our cultural existence, it echoes the sounds first identified as jazz, back at the birth pangs of the modern age. It is the commitment to a collective sound devoid of ego with the fearless individual, that makes this music extraordinary, that provides the moments of almost spiritual communion."-Bo Weavil
 
Состав
Alto Saxophone, Baritone Saxophone, Voice – Alan Wilkinson
Double Bass, Mastered By [Analogue Tape] – Simon H. Fell
Drums – Willi Kellers
Tenor Saxophone, Clarinet, Tárogató – Peter Brötzmann
Composed By – Alan Wilkinson, Peter Brötzmann, Simon H. Fell, Willi Kellers
По всем вопросам пишите личное сообщение пользователю M0p94ok.
17:24
190
Нет комментариев. Ваш будет первым!