Вы используете незарегистрированную версию компонента "Вкладки"!

Поиск

(Avant-Garde Jazz, Free Improvisation) [CD] Simon Nabatov & Mark Dresser - Projections - 2015, FLAC (tracks+.cue), lossless

(Avant-Garde Jazz, Free Improvisation) [CD] Simon Nabatov & Mark Dresser - Projections - 2015, FLAC (tracks+.cue), lossless
Треклист:
SIMON NABATOV ' MARK DRESSER ' PROJECTIONS
Жанр: Avant-Garde Jazz, Free Improvisation
Страна-производитель диска: Portugal
Год издания: 2015
Издатель (лейбл): Clean Feed
Номер по каталогу: CF 327
Аудиокодек: FLAC (*.flac)
Тип рипа: tracks+.cue
Битрейт аудио: lossless
Продолжительность: 48:37
Источник (релизер): спасибо 6060842
Наличие сканов: front
Треклист:
1. Cover All Basses
2. Cîtara XL
3. Aria Attack
4. Pliant Giant
5. La Ment
6. Parting Shots
 
Лог создания рипа
X Lossless Decoder version 20141129a (148.2)
XLD extraction logfile from 2015-11-19 02:50:13 +0300
Simon Nabatov, Mark Dresser / Projections
Used drive : HL-DT-ST DVDRW GX30N (revision RP09)
Media type : Pressed CD
Ripper mode : XLD Secure Ripper
Disable audio cache : OK for the drive with a cache less than 1375KiB
Make use of C2 pointers : NO
Read offset correction : 6
Max retry count : 100
Gap status : Analyzed, Appended (except HTOA)
TOC of the extracted CD
Track | Start | Length | Start sector | End sector
---------------------------------------------------------
1 | 00:00:00 | 08:44:42 | 0 | 39341
2 | 08:44:42 | 09:08:60 | 39342 | 80501
3 | 17:53:27 | 07:26:44 | 80502 | 113995
4 | 25:19:71 | 09:15:49 | 113996 | 155669
5 | 34:35:45 | 10:11:72 | 155670 | 201566
6 | 44:47:42 | 03:50:32 | 201567 | 218848
AccurateRip Summary
Disc not found in AccurateRip DB.
All Tracks
Album gain : -4.34 dB
Peak : 0.960693
Statistics
Read error : 0
Jitter error (maybe fixed) : 0
Retry sector count : 0
Damaged sector count : 0
Track 01
Filename : /Users/anch/Music/Grabbed/Simon Nabatov, Mark Dresser/F 2015 - Projections/01 - Cover All Basses.flac
Pre-gap length : 00:02:00
Track gain : -3.75 dB
Peak : 0.836700
CRC32 hash (test run) : FDFDEAAF
CRC32 hash : FDFDEAAF
CRC32 hash (skip zero) : 0AB7DB30
AccurateRip v1 signature : 1F875C9F
AccurateRip v2 signature : 84F36533
->Track not present in AccurateRip database.
Statistics
Read error : 0
Jitter error (maybe fixed) : 0
Retry sector count : 0
Damaged sector count : 0
Track 02
Filename : /Users/anch/Music/Grabbed/Simon Nabatov, Mark Dresser/F 2015 - Projections/02 - Cítara XL.flac
Track gain : -3.63 dB
Peak : 0.951569
CRC32 hash (test run) : 92959855
CRC32 hash : 92959855
CRC32 hash (skip zero) : 619B91FD
AccurateRip v1 signature : 95CBD7D1
AccurateRip v2 signature : 07FECC4D
->Track not present in AccurateRip database.
Statistics
Read error : 0
Jitter error (maybe fixed) : 0
Retry sector count : 0
Damaged sector count : 0
Track 03
Filename : /Users/anch/Music/Grabbed/Simon Nabatov, Mark Dresser/F 2015 - Projections/03 - Aria Attack.flac
Track gain : -2.27 dB
Peak : 0.951019
CRC32 hash (test run) : 11C90BAE
CRC32 hash : 11C90BAE
CRC32 hash (skip zero) : 807F4B03
AccurateRip v1 signature : 825C4E33
AccurateRip v2 signature : 64C0B8FE
->Track not present in AccurateRip database.
Statistics
Read error : 0
Jitter error (maybe fixed) : 0
Retry sector count : 0
Damaged sector count : 0
Track 04
Filename : /Users/anch/Music/Grabbed/Simon Nabatov, Mark Dresser/F 2015 - Projections/04 - Pliant Giant.flac
Track gain : -4.86 dB
Peak : 0.960693
CRC32 hash (test run) : D666BA07
CRC32 hash : D666BA07
CRC32 hash (skip zero) : B118718F
AccurateRip v1 signature : 5997FF79
AccurateRip v2 signature : 651F4078
->Track not present in AccurateRip database.
Statistics
Read error : 0
Jitter error (maybe fixed) : 0
Retry sector count : 0
Damaged sector count : 0
Track 05
Filename : /Users/anch/Music/Grabbed/Simon Nabatov, Mark Dresser/F 2015 - Projections/05 - La Ment.flac
Track gain : -4.99 dB
Peak : 0.959442
CRC32 hash (test run) : 6E96E7D8
CRC32 hash : 6E96E7D8
CRC32 hash (skip zero) : 2778915A
AccurateRip v1 signature : 849C8639
AccurateRip v2 signature : E15E1021
->Track not present in AccurateRip database.
Statistics
Read error : 0
Jitter error (maybe fixed) : 0
Retry sector count : 0
Damaged sector count : 0
Track 06
Filename : /Users/anch/Music/Grabbed/Simon Nabatov, Mark Dresser/F 2015 - Projections/06 - Parting Shots.flac
Track gain : -5.08 dB
Peak : 0.960541
CRC32 hash (test run) : E93B941B
CRC32 hash : E93B941B
CRC32 hash (skip zero) : 03DA16A9
AccurateRip v1 signature : FF668B4A
AccurateRip v2 signature : 3F9FA459
->Track not present in AccurateRip database.
Statistics
Read error : 0
Jitter error (maybe fixed) : 0
Retry sector count : 0
Damaged sector count : 0
No errors occurred
End of status report
-----BEGIN XLD SIGNATURE-----
6HoT4.tHJSRNnVbI8Eh.bS53RClWfyjI1vOe5vCa.GTyOe2unBLvhM9rAcHZ7r_K.mzpzgp8ufl.UdtaY0VyjEJwlADLUmn36QJx9e0
-----END XLD SIGNATURE-----
 
Содержание индексной карты (.CUE)
TITLE "Projections"
PERFORMER "Simon Nabatov, Mark Dresser"
CATALOG 5609063003277
REM GENRE "Free Jazz"
REM DATE "2015"
REM DISCNUMBER 1
REM TOTALDISCS 1
REM DISCID 4E0B6506
REM REPLAYGAIN_ALBUM_GAIN -4.34 dB
REM REPLAYGAIN_ALBUM_PEAK 0.960693
FILE "01 - Cover All Basses.flac" WAVE
TRACK 01 AUDIO
TITLE "Cover All Basses"
PERFORMER "Simon Nabatov, Mark Dresser"
ISRC PTNF11509166
FLAGS DCP
REM COMMENT "Recorded live at the LOFT Cologne May 31 2014"
REM REPLAYGAIN_TRACK_GAIN -3.75 dB
REM REPLAYGAIN_TRACK_PEAK 0.836700
INDEX 01 00:00:00
FILE "02 - Citara XL.flac" WAVE
TRACK 02 AUDIO
TITLE "Citara XL"
PERFORMER "Simon Nabatov, Mark Dresser"
ISRC PTNF11509167
FLAGS DCP
REM COMMENT "Recorded live at the LOFT Cologne May 31 2014"
REM REPLAYGAIN_TRACK_GAIN -3.63 dB
REM REPLAYGAIN_TRACK_PEAK 0.951569
INDEX 01 00:00:00
FILE "03 - Aria Attack.flac" WAVE
TRACK 03 AUDIO
TITLE "Aria Attack"
PERFORMER "Simon Nabatov, Mark Dresser"
ISRC PTNF11509168
FLAGS DCP
REM COMMENT "Recorded live at the LOFT Cologne May 31 2014"
REM REPLAYGAIN_TRACK_GAIN -2.27 dB
REM REPLAYGAIN_TRACK_PEAK 0.951019
INDEX 01 00:00:00
FILE "04 - Pliant Giant.flac" WAVE
TRACK 04 AUDIO
TITLE "Pliant Giant"
PERFORMER "Simon Nabatov, Mark Dresser"
ISRC PTNF11509169
FLAGS DCP
REM COMMENT "Recorded live at the LOFT Cologne May 31 2014"
REM REPLAYGAIN_TRACK_GAIN -4.86 dB
REM REPLAYGAIN_TRACK_PEAK 0.960693
INDEX 01 00:00:00
FILE "05 - La Ment.flac" WAVE
TRACK 05 AUDIO
TITLE "La Ment"
PERFORMER "Simon Nabatov, Mark Dresser"
ISRC PTNF11509170
FLAGS DCP
REM COMMENT "Recorded live at the LOFT Cologne May 31 2014"
REM REPLAYGAIN_TRACK_GAIN -4.99 dB
REM REPLAYGAIN_TRACK_PEAK 0.959442
INDEX 01 00:00:00
FILE "06 - Parting Shots.flac" WAVE
TRACK 06 AUDIO
TITLE "Parting Shots"
PERFORMER "Simon Nabatov, Mark Dresser"
ISRC PTNF11509171
FLAGS DCP
REM COMMENT "Recorded live at the LOFT Cologne May 31 2014"
REM REPLAYGAIN_TRACK_GAIN -5.08 dB
REM REPLAYGAIN_TRACK_PEAK 0.960541
INDEX 01 00:00:00
 
Об альбоме
Projections captures an improvised duo encounter between émigré Russian pianist Simon Nabatov and Californian bassist Mark Dresser. Although they first played together as part of German composer Klaus Konig's Orchestra in 1992, it's taken until now for their first head to head. Both are masters of their respective instruments, articulate, persuasive and responsive. They come together in a busy, volatile set recorded live in 2014 at the Loft in Nabatov's adopted hometown of Cologne. The result is a dazzling series of interactions which can change within the space of a few seconds from warm and tender to austere and alien.
Dresser commands a range of tone and texture unmatched by any of his peers except perhaps Barry Guy, manifest in rapid-fire switches between bow and fingers and between registers from delicate koto like plucks to a growling bottom end. Slurred vocal inflections vie with pure toned classical lines as he roams freely across the fretboard. His partnership with self styled hyper pianist Denman Maroney leads one to ask whether the bassist gravitates towards those who modify their piano for alternative sounds, or does he attract them?
Certainly on this session Nabatov majors on piano preparations in contrast to some of his other dates (such as his garrulous duets with trombonist Nils Wogram). Gambits such as rolling balls on the strings add a random element, while he dampens the hammers elsewhere to extract gamelan sonorities. There's no respite to his imagination on the keyboard, where the torrent of notes emanating from each hand suggests he almost has too much to say.
Happy synchronicities mean that two such voices in full spate create much more than the sum of their parts With no melody or regular time, the music is percussive rather than rhythmic—the prancing staccato section in "Pliant Giant" provides a case in point. But episodes of spare reflection appear interspersed through the program, as in "Cîtara XL" where the unconventional jostles with the more expected.
Dresser's introduction to "Aria Attack" includes whistling arco wails and groans, building up to an intense exchange. But a restless energy dictates that no matter what they move on quickly to new ideas (as in the Morse code passage in jerky explosive "Parting Shots") an indication perhaps that much remains for this pairing to investigate.
4/5 stars
(John Sharpe, AllAboutJazz)
 
Состав
Simon piano Nabatov
Mark bass Dresser
По всем вопросам пишите личное сообщение пользователю M0p94ok.
17:23
172
Нет комментариев. Ваш будет первым!