Вы используете незарегистрированную версию компонента "Вкладки"!

Поиск

(free jazz) [cd] Satoko Fujii Tobira - Yamiyo Ni Karasu (2015), FLAC (tracks+.cue), lossless

(free jazz) [cd] Satoko Fujii Tobira - Yamiyo Ni Karasu (2015), FLAC (tracks+.cue), lossless
Треклист:
(free jazz) [cd] Satoko Fujii Tobira - Yamiyo Ni Karasu (2015), FLAC (tracks+.cue), lossless


Satoko Fujii Tobira - Yamiyo Ni Karasu (2015)

Жанр: free jazz
Год выпуска: 2015
Издатель (лейбл):Libra Records / 204-038
Формат: FLAC (tracks+.cue)
Битрейт аудио: lossless
Продолжительность 58`21
Источник: /what.cd
Natsuki Tamura - trumpet
Satoko Fujii - piano
Todd Nicholson - bass
Takashi Itani - drums, percussion

tracks

1 Hanabi 13:53
2 Run After A Shadow 9:58
3 Fuki 3:58
4 Wind Dance 6:39
5 Centrifugal Force 9:49
6 Potential Energy 9:39
7 Yamiyo Ni Karasu 4:10


 
.log
Exact Audio Copy V1.1 from 23. June 2015
EAC extraction logfile from 26. November 2015, 19:54
Satoko Fujii Tobira / Yamiyo Ni Karasu
Used drive : TSSTcorpCDDVDW SH-S223F Adapter: 1 ID: 0
Read mode : Secure
Utilize accurate stream : Yes
Defeat audio cache : Yes
Make use of C2 pointers : No
Read offset correction : 6
Overread into Lead-In and Lead-Out : No
Fill up missing offset samples with silence : Yes
Delete leading and trailing silent blocks : No
Null samples used in CRC calculations : Yes
Used interface : Native Win32 interface for Win NT & 2000
Gap handling : Appended to previous track
Used output format : User Defined Encoder
Selected bitrate : 1024 kBit/s
Quality : High
Add ID3 tag : No
Command line compressor : C:\Program Files (x86)\Exact Audio Copy\Flac\flac.exe
Additional command line options : -8 -V -T "ARTIST=%artist%" -T "TITLE=%title%" -T "ALBUM=%albumtitle%" -T "DATE=%year%" -T "TRACKNUMBER=%tracknr%" -T "GENRE=%genre%" -T "PERFORMER=%albuminterpret%" -T "COMPOSER=%composer%" %haslyrics%--tag-from-file=LYRICS="%lyricsfile%"%haslyrics% -T "ALBUMARTIST=%albumartist%" -T "DISCNUMBER=%cdnumber%" -T "TOTALDISCS=%totalcds%" -T "TOTALTRACKS=%numtracks%" -T "COMMENT=%comment%" %source% -o %dest%
TOC of the extracted CD
Track | Start | Length | Start sector | End sector
---------------------------------------------------------
1 | 0:00.00 | 13:55.47 | 0 | 62671
2 | 13:55.47 | 10:00.62 | 62672 | 107733
3 | 23:56.34 | 4:00.09 | 107734 | 125742
4 | 27:56.43 | 6:41.26 | 125743 | 155843
5 | 34:37.69 | 9:51.60 | 155844 | 200228
6 | 44:29.54 | 9:41.24 | 200229 | 243827
7 | 54:11.03 | 4:10.13 | 243828 | 262590
Track 1
Filename D:\MusicForUpload\S\Satoko Fujii Tobira - (2015) Yamiyo Ni Karasu [FLAC]\01 - Hanabi.wav
Pre-gap length 0:00:02.00
Peak level 96.8 %
Extraction speed 3.0 X
Track quality 99.9 %
Test CRC 2F707B96
Copy CRC 2F707B96
Track not present in AccurateRip database
Copy OK
Track 2
Filename D:\MusicForUpload\S\Satoko Fujii Tobira - (2015) Yamiyo Ni Karasu [FLAC]\02 - Run After a Shadow.wav
Pre-gap length 0:00:02.00
Peak level 96.6 %
Extraction speed 4.0 X
Track quality 100.0 %
Test CRC 0BB1FF76
Copy CRC 0BB1FF76
Track not present in AccurateRip database
Copy OK
Track 3
Filename D:\MusicForUpload\S\Satoko Fujii Tobira - (2015) Yamiyo Ni Karasu [FLAC]\03 - Fuki.wav
Pre-gap length 0:00:02.00
Peak level 96.6 %
Extraction speed 4.0 X
Track quality 100.0 %
Test CRC F169DCB5
Copy CRC F169DCB5
Track not present in AccurateRip database
Copy OK
Track 4
Filename D:\MusicForUpload\S\Satoko Fujii Tobira - (2015) Yamiyo Ni Karasu [FLAC]\04 - Wind Dance.wav
Pre-gap length 0:00:02.00
Peak level 96.4 %
Extraction speed 3.8 X
Track quality 99.9 %
Test CRC 38DEA888
Copy CRC 38DEA888
Track not present in AccurateRip database
Copy OK
Track 5
Filename D:\MusicForUpload\S\Satoko Fujii Tobira - (2015) Yamiyo Ni Karasu [FLAC]\05 - Centrifugal Force.wav
Pre-gap length 0:00:02.00
Peak level 96.6 %
Extraction speed 5.0 X
Track quality 100.0 %
Test CRC 93088544
Copy CRC 93088544
Track not present in AccurateRip database
Copy OK
Track 6
Filename D:\MusicForUpload\S\Satoko Fujii Tobira - (2015) Yamiyo Ni Karasu [FLAC]\06 - Potential Energy.wav
Pre-gap length 0:00:02.00
Peak level 96.6 %
Extraction speed 4.7 X
Track quality 99.9 %
Test CRC 54611773
Copy CRC 54611773
Track not present in AccurateRip database
Copy OK
Track 7
Filename D:\MusicForUpload\S\Satoko Fujii Tobira - (2015) Yamiyo Ni Karasu [FLAC]\07 - Yamiyo Ni Karasu.wav
Pre-gap length 0:00:02.00
Peak level 96.6 %
Extraction speed 5.1 X
Track quality 100.0 %
Test CRC 49F5DC42
Copy CRC 49F5DC42
Track not present in AccurateRip database
Copy OK
None of the tracks are present in the AccurateRip database
No errors occurred
End of status report
---- CUETools DB Plugin V2.1.6
[CTDB TOCID: yJQJvRZb50vUiHYSGJN4AleLLCs-] found
Submit result: yJQJvRZb50vUiHYSGJN4AleLLCs- has been confirmed
Track | CTDB Status
1 | (1/1) Accurately ripped
2 | (1/1) Accurately ripped
3 | (1/1) Accurately ripped
4 | (1/1) Accurately ripped
5 | (1/1) Accurately ripped
6 | (1/1) Accurately ripped
7 | (1/1) Accurately ripped
==== Log checksum 3D532516B15F36F6E73055C903BC9FFCC0A223624DD55B1E987C5E74AA65766F ====
 
.cue
REM GENRE Jazz
REM DATE 2015
REM DISCID 690DAD07
REM COMMENT "ExactAudioCopy v1.1"
FILE "01 - Hanabi.wav" WAVE
TRACK 01 AUDIO
INDEX 01 00:00:00
TRACK 02 AUDIO
INDEX 00 13:53:47
FILE "02 - Run After a Shadow.wav" WAVE
INDEX 01 00:00:00
TRACK 03 AUDIO
INDEX 00 09:58:62
FILE "03 - Fuki.wav" WAVE
INDEX 01 00:00:00
TRACK 04 AUDIO
INDEX 00 03:58:09
FILE "04 - Wind Dance.wav" WAVE
INDEX 01 00:00:00
TRACK 05 AUDIO
INDEX 00 06:39:26
FILE "05 - Centrifugal Force.wav" WAVE
INDEX 01 00:00:00
TRACK 06 AUDIO
INDEX 00 09:49:60
FILE "06 - Potential Energy.wav" WAVE
INDEX 01 00:00:00
TRACK 07 AUDIO
INDEX 00 09:39:24
FILE "07 - Yamiyo Ni Karasu.wav" WAVE
INDEX 01 00:00:00
http://www.discogs.com/Satoko-Fujii-Tobira-Yamiyo-Ni-Karasu/release/6882159
другие релизы
По всем вопросам пишите личное сообщение пользователю M0p94ok.
17:23
196
Нет комментариев. Ваш будет первым!