Вы используете незарегистрированную версию компонента "Вкладки"!

Поиск

(Free Jazz, British Jazz, Free Improvisation) [CD] Organon (Elton Dean, Jim Dvorak, Tim Crowther, John Edwards, Jim Lebaigue) - Klusterbuckstuckle - 2004, FLAC (tracks+.cue), lossless

(Free Jazz, British Jazz, Free Improvisation) [CD] Organon (Elton Dean, Jim Dvorak, Tim Crowther, John Edwards, Jim Lebaigue) - Klusterbuckstuckle - 2004, FLAC (tracks+.cue), lossless
Треклист:
Organon / Klusterbuckstuckle
Жанр: Free Jazz, British Jazz, Free Improvisation
Носитель: CD
Страна-производитель диска: UK
Год издания: 2004
Издатель (лейбл): Slam Productions
Номер по каталогу: SLAMCD 256
Страна: UK
Аудиокодек: FLAC (*.flac)
Тип рипа: tracks+.cue
Битрейт аудио: lossless
Продолжительность: 59:46
Источник (релизер): свой фирменный диск
Наличие сканов в содержимом раздачи:
Треклист:
1. Rekelecterak 13:58
2. Klusterbuckstuckle 11:19
3. Arpaloogy 14:28
4. Froomillais 19:58
 
Лог создания рипа
Exact Audio Copy V1.0 beta 3 from 29. August 2011
EAC extraction logfile from 25. January 2014, 0:20
Organon / Klusterbuckstuckle
Used drive : PIONEER DVD-RW DVR-115D Adapter: 0 ID: 0
Read mode : Secure
Utilize accurate stream : Yes
Defeat audio cache : Yes
Make use of C2 pointers : No
Read offset correction : 48
Overread into Lead-In and Lead-Out : No
Fill up missing offset samples with silence : Yes
Delete leading and trailing silent blocks : No
Null samples used in CRC calculations : Yes
Used interface : Installed external ASPI interface
Gap handling : Appended to previous track
Used output format : User Defined Encoder
Selected bitrate : 896 kBit/s
Quality : High
Add ID3 tag : No
Command line compressor : C:\Program Files\Exact Audio Copy\FLAC\FLAC.EXE
Additional command line options : -6 -V -T "ARTIST=%artist%" -T "TITLE=%title%" -T "ALBUM=%albumtitle%" -T "DATE=%year%" -T "TRACKNUMBER=%tracknr%" -T "GENRE=%genre%" -T "COMMENT=%comment%" -T "BAND=%albuminterpret%" -T "COMPOSER=%composer%" %haslyrics%--tag-from-file=LYRICS="%lyricsfile%"%haslyrics% -T "DISCNUMBER=%cdnumber%" -T "TOTALDISCS=%totalcds%" -T "TOTALTRACKS=%numtracks%" %hascover%--picture="%coverfile%"%hascover% %source% -o %dest%
TOC of the extracted CD
Track | Start | Length | Start sector | End sector
---------------------------------------------------------
1 | 0:00.00 | 14:00.03 | 0 | 63002
2 | 14:00.03 | 11:19.39 | 63003 | 113966
3 | 25:19.42 | 14:29.06 | 113967 | 179147
4 | 39:48.48 | 19:58.05 | 179148 | 269002
Track 1
Filename D:\zzz\01 - Rekelecterak.wav
Pre-gap length 0:00:02.00
Peak level 100.0 %
Extraction speed 5.2 X
Track quality 100.0 %
Test CRC 60FA0935
Copy CRC 60FA0935
Track not present in AccurateRip database
Copy OK
Track 2
Filename D:\zzz\02 - Klusterbuckstuckle.wav
Pre-gap length 0:00:01.00
Peak level 100.0 %
Extraction speed 6.4 X
Track quality 100.0 %
Test CRC D12D2C68
Copy CRC D12D2C68
Track not present in AccurateRip database
Copy OK
Track 3
Filename D:\zzz\03 - Arpaloogy.wav
Peak level 98.4 %
Extraction speed 7.5 X
Track quality 100.0 %
Test CRC 73654EE8
Copy CRC 73654EE8
Track not present in AccurateRip database
Copy OK
Track 4
Filename D:\zzz\04 - Froomillais.wav
Pre-gap length 0:00:01.00
Peak level 100.0 %
Extraction speed 8.6 X
Track quality 100.0 %
Test CRC 6E0C7177
Copy CRC 6E0C7177
Track not present in AccurateRip database
Copy OK
None of the tracks are present in the AccurateRip database
No errors occurred
End of status report
==== Log checksum DC738409091C940D59624B89052629F6588F0812E534E9B1516AEE14378D70A2 ====
 
Содержание индексной карты (.CUE)
REM GENRE "Free Improvisation"
REM DATE 2004
REM DISCID 270E0204
REM COMMENT "ExactAudioCopy v1.0b3"
PERFORMER "Organon"
TITLE "Klusterbuckstuckle"
FILE "01 - Rekelecterak.wav" WAVE
TRACK 01 AUDIO
TITLE "Rekelecterak"
PERFORMER "Organon"
INDEX 01 00:00:00
TRACK 02 AUDIO
TITLE "Klusterbuckstuckle"
PERFORMER "Organon"
INDEX 00 13:59:03
FILE "02 - Klusterbuckstuckle.wav" WAVE
INDEX 01 00:00:00
FILE "03 - Arpaloogy.wav" WAVE
TRACK 03 AUDIO
TITLE "Arpaloogy"
PERFORMER "Organon"
INDEX 01 00:00:00
TRACK 04 AUDIO
TITLE "Froomillais"
PERFORMER "Organon"
INDEX 00 14:28:06
FILE "04 - Froomillais.wav" WAVE
INDEX 01 00:00:00
 
Лог проверки качества
d:\>d:\aucdtect -d/-m0 d:\zzz\*.wav
auCDtect: CD records authenticity detector, version 0.8.2
Copyright (c) 2004 Oleg Berngardt. All rights reserved.
Copyright (c) 2004 Alexander Djourik. All rights reserved.
------------------------------------------------------------
Processing file: [01. Rekelecterak.wav]
------------------------------------------------------------
This track looks like CDDA with probability 100%
------------------------------------------------------------
Processing file: [02. Klusterbuckstuckle.wav]
------------------------------------------------------------
This track looks like CDDA with probability 100%
------------------------------------------------------------
Processing file: [03. Arpaloogy.wav]
------------------------------------------------------------
This track looks like CDDA with probability 100%
------------------------------------------------------------
Processing file: [04. Froomillais.wav]
------------------------------------------------------------
This track looks like CDDA with probability 99%
------------------------------------------------------------
Final Conclusion:
------------------------------------------------------------
These tracks looks like CDDA with probability 100%
Доп. информация:
 
Album Info & The Guardian Review
All the compositions on this CD are the joint creations of the musicians and were improvised in real time without overdubs.
Recorded on the Visionlogic mobile, 29 September 2002 in Room 1 of The Premises.
Engineered, mixed and mastered by Tim Crowther.
Cover design by Peter Crowther Associates.
Organon is a British quintet including former Soft Machine saxophonist Elton Dean and District 6 trumpeter Jim Dvorak. The four pieces (they all have names about as impenetrable as the title) were recorded on this imaginative free-jazz session as a real-time improvisation on one day in September 2002.
But if the music is uncompromisingly loose and open, it isn't atonal, arrhythmic or wilfully indifferent to the audience appeal of signposts. An atmosphere of late-Miles electronic ambiguity is sometimes created by the sound of the horns against Tim Crowther's thick-layered guitar chords; Elton Dean's squirming sax figures are often astutely mirrored or punctuated by Dvorak's bristling trumpet inventions; the great John Edwards on bass creates a feeling of purposeful drive, and drummer Jim Lebaigue could have dropped just as equably into a bebop session.
 
Состав
Elton Dean: saxes
Jim Dvorak: trumpet
Tim Crowther: guitar/guitar synth
John Edwards: bass
Jim Lebaigue: drums
Any questions -> support@pro-jazz.com. По всем вопросам пишите -> support@pro-jazz.com
23:26
154
Нет комментариев. Ваш будет первым!