Вы используете незарегистрированную версию компонента "Вкладки"!

Поиск

(Free Improvisation, Modern Jazz) [CD] Lisbon Improvisation Players - Spiritualized - 2004, FLAC (tracks+.cue), lossless

(Free Improvisation, Modern Jazz) [CD] Lisbon Improvisation Players - Spiritualized - 2004, FLAC (tracks+.cue), lossless
Треклист:
Lisbon Improvisation Players - Spiritualized
Жанр: Free Improvisation, Modern Jazz
Носитель: CD
Страна-производитель диска: Portugal
Год издания: 2004
Издатель (лейбл): Clean Feed Records
Номер по каталогу: cf 062
Аудиокодек: FLAC (*.flac)
Тип рипа: tracks+.cue
Битрейт аудио: lossless
Продолжительность: 58:46
Источник (релизер): собственный рип с оригинального диска.
Наличие сканов в содержимом раздачи: да
Треклист:
01. Tensegrity
02. Dreams / Reflections
03. Awareness
04. Time - Rising Spirits
05. Meeting of our Times
06. Spiritualized
 
Лог создания рипа
Exact Audio Copy V0.99 prebeta 5 from 4. May 2009
EAC extraction logfile from 14. January 2011, 0:32
Lisbon Improvisation Players / Spiritualized
Used drive : TSSTcorpCDDVDW SH-S222A Adapter: 1 ID: 0
Read mode : Secure
Utilize accurate stream : Yes
Defeat audio cache : Yes
Make use of C2 pointers : No
Read offset correction : 6
Overread into Lead-In and Lead-Out : No
Fill up missing offset samples with silence : Yes
Delete leading and trailing silent blocks : No
Null samples used in CRC calculations : Yes
Used interface : Installed external ASPI interface
Gap handling : Appended to previous track
Used output format : User Defined Encoder
Selected bitrate : 768 kBit/s
Quality : High
Add ID3 tag : No
Command line compressor : C:\Tool\Compress\FLAC\flac.exe
Additional command line options : -V -8 -T "ARTIST=%a" -T "TITLE=%t" -T "ALBUM=%g" -T "TRACKNUMBER=%n" -T "GENRE=%m" %s
TOC of the extracted CD
Track | Start | Length | Start sector | End sector
---------------------------------------------------------
1 | 0:01.00 | 9:58.13 | 75 | 44937
2 | 9:59.13 | 12:06.40 | 44938 | 99427
3 | 22:05.53 | 10:18.55 | 99428 | 145832
4 | 32:24.33 | 7:14.05 | 145833 | 178387
5 | 39:38.38 | 8:24.11 | 178388 | 216198
6 | 48:02.49 | 10:44.60 | 216199 | 264558
Track 1
Filename C:\! RUTRACKER\ru up\Lisbon Improvisation Players - Spiritualized (2004) [FLAC]\01 - Tensegrity.wav
Pre-gap length 0:00:03.00
Peak level 100.0 %
Track quality 100.0 %
Test CRC A2257FB7
Copy CRC A2257FB7
Accurately ripped (confidence 1) [C738BE36]
Copy OK
Track 2
Filename C:\! RUTRACKER\ru up\Lisbon Improvisation Players - Spiritualized (2004) [FLAC]\02 - Dreams - Reflections.wav
Pre-gap length 0:00:02.60
Peak level 99.8 %
Track quality 99.9 %
Test CRC 05C0C113
Copy CRC 05C0C113
Accurately ripped (confidence 1) [89FBA403]
Copy OK
Track 3
Filename C:\! RUTRACKER\ru up\Lisbon Improvisation Players - Spiritualized (2004) [FLAC]\03 - Awareness.wav
Pre-gap length 0:00:02.60
Peak level 79.2 %
Track quality 100.0 %
Test CRC 526A965B
Copy CRC 526A965B
Accurately ripped (confidence 1) [993B0B0A]
Copy OK
Track 4
Filename C:\! RUTRACKER\ru up\Lisbon Improvisation Players - Spiritualized (2004) [FLAC]\04 - Time - Rising Spirits.wav
Pre-gap length 0:00:02.60
Peak level 94.9 %
Track quality 100.0 %
Test CRC 0FA59B38
Copy CRC 0FA59B38
Accurately ripped (confidence 1) [27F30C01]
Copy OK
Track 5
Filename C:\! RUTRACKER\ru up\Lisbon Improvisation Players - Spiritualized (2004) [FLAC]\05 - Meeting of our Times.wav
Pre-gap length 0:00:02.60
Peak level 100.0 %
Track quality 100.0 %
Test CRC B883B0AB
Copy CRC B883B0AB
Accurately ripped (confidence 1) [7807FA0E]
Copy OK
Track 6
Filename C:\! RUTRACKER\ru up\Lisbon Improvisation Players - Spiritualized (2004) [FLAC]\06 - Spiritualized.wav
Pre-gap length 0:00:02.60
Peak level 83.7 %
Track quality 100.0 %
Test CRC FA006663
Copy CRC FA006663
Accurately ripped (confidence 1) [F3F4C375]
Copy OK
All tracks accurately ripped
No errors occurred
End of status report
 
Содержание индексной карты (.CUE)
REM GENRE Avantgarde
REM DATE 2004
REM DISCID 4E0DC606
REM COMMENT "ExactAudioCopy v0.99pb5"
PERFORMER "Lisbon Improvisation Players"
TITLE "Spiritualized"
FILE "01 - Tensegrity.wav" WAVE
TRACK 01 AUDIO
TITLE "Tensegrity"
PERFORMER "Lisbon Improvisation Players"
FLAGS DCP
PREGAP 00:01:00
INDEX 01 00:00:00
TRACK 02 AUDIO
TITLE "Dreams - Reflections"
PERFORMER "Lisbon Improvisation Players"
FLAGS DCP
INDEX 00 09:55:43
FILE "02 - Dreams - Reflections.wav" WAVE
INDEX 01 00:00:00
TRACK 03 AUDIO
TITLE "Awareness"
PERFORMER "Lisbon Improvisation Players"
FLAGS DCP
INDEX 00 12:03:70
FILE "03 - Awareness.wav" WAVE
INDEX 01 00:00:00
TRACK 04 AUDIO
TITLE "Time - Rising Spirits"
PERFORMER "Lisbon Improvisation Players"
FLAGS DCP
INDEX 00 10:16:10
FILE "04 - Time - Rising Spirits.wav" WAVE
INDEX 01 00:00:00
TRACK 05 AUDIO
TITLE "Meeting of our Times"
PERFORMER "Lisbon Improvisation Players"
FLAGS DCP
INDEX 00 07:11:35
FILE "05 - Meeting of our Times.wav" WAVE
INDEX 01 00:00:00
TRACK 06 AUDIO
TITLE "Spiritualized"
PERFORMER "Lisbon Improvisation Players"
FLAGS DCP
INDEX 00 08:21:41
FILE "06 - Spiritualized.wav" WAVE
INDEX 01 00:00:00
Доп. информация:
Recorded at Cha-Cha-Cha Studios, Lisbon, October 15th, 2004
 
Об альбоме (сборнике)
Rodrigo Amado, the man who leads the band with a changing lineup - which he named Lisbon Improvisation Players, or LIP if you’re in a hurry - likes double meanings. First of all, the one created with the letters L, I and P, alluding to the presence of a saxophone and giving sensual indications of just how this music is played: lips to perform and lips to seduce you. Then, there's the ambiguity of a jazz approach, something between hard bop and free, but totally improvised, with no structures, themes, or anything else previously prepared. Finally, the “think globally, act locally” duplicity implied by a project that has a particular city in its name but then includes musicians from other geographical origins. That was the case with Steve Adams and Ken Filiano in “Motion” - one Californian, the other a New Yorker - and now the same happens with Dennis González, a Texan of Mexican descent.
Speaking of double meanings, one usually expects the special guest to be part of the "front line", together with the bandleader. But in “Spiritualized”, trumpeter González decided to position himself behind Amado, not for mere courtesy but to comment on what he does and also, to be in the middle between the soloist and the rhythm section (formed by bassist Pedro Gonçalves and drummer Bruno Pedroso) in order to react to what’s happening globally. A sort of hierarchy of roles is established to focus our attention on the way everybody functions in the tricky machinery of this ensemble – in González's case, as an outsider who goes in to change parameters and directions, even when he seems to keep a low profile. But there’s more: if, by its nature this is fire music, you’ll be surprised with the way Rodrigo Amado deals with spaces and intervals, assuming that, to “let it go”, he doesn’t necessarily have to overblow his horn, and you’ll be amazed by the gentleness of some of the trumpet lines, as well as with the chamber dimension lent to the proceedings by Ulrich Mitzlaff, a German experimental cello player who's lived in Lisbon for 11 years.
All this goes to show that this isn’t just another jazz record, but something to discover little by little and to assimilate as the special art object it is, musically rich and open to our own subjectivity as active listeners; and with a spiritual aura that give us a clear perception of the real influence Dennis González had on these sessions - the same aura we find in his own records and in his paintings - which are all about “rising spirits” and “awareness”, the exact titles of two tracks.
 
Состав
Lisbon Improvisation Players:
Bruno Pedroso - drums
Dennis González - trumpet
Pedro Goncalves - bass
Rodrigo Amado - alto & baritone saxes
Ulrich Mitzlaff - cello (tracks 5 & 6)
По всем вопросам пишите личное сообщение пользователю M0p94ok.
23:27
174
Нет комментариев. Ваш будет первым!