Вы используете незарегистрированную версию компонента "Вкладки"!

Поиск

(Avant-Garde Jazz / Contemporary Jazz) [CD] Miłość (Milosc) (Mikolaj Trzaska, Maciej Sikala, Leslaw Mozdzer, Ryszard T. Tymanski, Jacek Olter) - Taniec Smoka - 1994, FLAC (tracks+.cue), lossless

(Avant-Garde Jazz / Contemporary Jazz) [CD] Miłość (Milosc) (Mikolaj Trzaska, Maciej Sikala, Leslaw Mozdzer, Ryszard T. Tymanski, Jacek Olter) - Taniec Smoka - 1994, FLAC (tracks+.cue), lossless
Треклист:
Miłość - Taniec Smoka
Жанр: Avant-Garde Jazz / Contemporary Jazz
Носитель: CD
Страна-производитель диска: Poland
Год издания: 1994
Издатель (лейбл): GOWI Records
Номер по каталогу: CDG 15
Аудиокодек: FLAC (*.flac)
Тип рипа: tracks+.cue
Битрейт аудио: lossless
Продолжительность: 01:05:40
Источник (релизер): вата / спасибо daodrozd
Наличие сканов в содержимом раздачи: да
Треклист:
1. Taniec Smoka (12:00)
2. Maszyna Ludzka (03:44)
3. Lezor i Niutnia (03:13)
4. Pańska Bródka Mnie Denerwuje (Nie Mówiąc Już o Wąsikach) (03:23)
5. Cardano (07:47)
6. Chłepcąc Ciekły Hel (06:59)
7. Ordre Omnitonique (07:11)
8. Lewy Jass (02:18)
9. Ostatnie z Ludzkich Smoków (08:38)
10. Łzy Smoka (10:29)
all compositions & poems by R.T.Tymański
all arrangements by MIŁOŚĆ
Доп. информация:
Musicians:
MIKOŁAJ TRZASKA - alto, soprano & baritone saxes, voices
MACIEJ SIKAŁA - tenor & soprano saxes, saxophone neck, voices
LESŁAW MOŻDŻER - grand piano, accordion, clapping, voices
RYSZARD T. TYMAŃSKI - double bass, balalaika, horn, voices; leader
JACEK OLTER - drums, percussion, voices
recorded April 17-20, 1994 at Polskie Radio Szczecin studios
MIŁOŚĆ from Wikipedia, the free encyclopedia
MIKOŁAJ TRZASKA Official Site
MIKOŁAJ TRZASKA from Wikipedia, the free encyclopedia
MACIEJ SIKAŁA Official Site
LESZEK MOŻDŻER Official Site
LESZEK MOŻDŻER myspace.com
LESZEK MOŻDŻER from Wikipedia, the free encyclopedia
RYSZARD TYMAŃSKI from Wikipedia, the free encyclopedia
JACEK OLTER from Wikipedia, the free encyclopedia
 
... back ...
 
Лог создания рипа
Exact Audio Copy V1.0 beta 3 from 29. August 2011
Sprawozdanie ze zgrywania programem EAC z 21. Grudnia 2012, 16:33
Miłość / Taniec Smoka
Użyty napęd: TSSTcorpCDDVDW SH-S203P Adapter: 3 ID: 1
Tryb odczytu: : Bezpieczny
Dokładny strumień : Tak
Neutralizacja bufora napędu : Nie
Zwracanie błędów C2 : Nie
Korekta położenia dla odczytu : 6
Nadczytywanie w obszarach LeadIn i LeadOut : Nie
Dopełnianie ciszą brakujących próbek : Tak
Usuwanie początkowych i końcowych bloków ciszy : Nie
Do przeliczenia sumy kontrolnej CRC użyto próbek zerowych : Tak
Interfejs : Wewnętrzny interfejs Win32 dla Windows NT i 2000
Przerwy : Dodane do poprzedniego nagrania
Użyty format wyjściowy : Wewnętrzne procedury WAV
Format próbki : 44.100 Hz; 16 bitów; stereo
TOC zgranej płyty
Utwór | Początek | Długość | Sektor początkowy | Sektor końcowy
------------------------------------------------------------------
1 | 0:00.32 | 12:05.33 | 32 | 54439
2 | 12:05.65 | 3:49.15 | 54440 | 71629
3 | 15:55.05 | 3:17.15 | 71630 | 86419
4 | 19:12.20 | 3:26.62 | 86420 | 101931
5 | 22:39.07 | 7:52.13 | 101932 | 137344
6 | 30:31.20 | 7:04.25 | 137345 | 169169
7 | 37:35.45 | 7:17.37 | 169170 | 201981
8 | 44:53.07 | 2:23.18 | 201982 | 212724
9 | 47:16.25 | 8:43.25 | 212725 | 251974
10 | 55:59.50 | 10:30.10 | 251975 | 299234
Nagranie 1
Ścieżka pliku K:\Milosc - Taniec Smoka\01 Taniec Smoka.wav
Długość przerwy 0:00:02.32
Poziom wysterowania 86.3 %
Szybkość zgrywania4.9 X
Jakość nagrania 100.0 %
CRC testowana BDE85DB7
CRC kopii BDE85DB7
Zgrane akuratnie (wiarygodność 3) [9853F837] (AR v1)
Kopia bezbłędna
Nagranie 2
Ścieżka pliku K:\Milosc - Taniec Smoka\02 Maszyna Ludzka.wav
Długość przerwy 0:00:03.58
Poziom wysterowania 83.7 %
Szybkość zgrywania5.6 X
Jakość nagrania 100.0 %
CRC testowana 0298F048
CRC kopii 0298F048
Zgrane akuratnie (wiarygodność 3) [445AF56A] (AR v1)
Kopia bezbłędna
Nagranie 3
Ścieżka pliku K:\Milosc - Taniec Smoka\03 Lezor i Niutnia.wav
Długość przerwy 0:00:06.10
Poziom wysterowania 100.0 %
Szybkość zgrywania5.4 X
Jakość nagrania 99.9 %
CRC testowana CD93CDE1
CRC kopii CD93CDE1
Zgrane akuratnie (wiarygodność 3) [1A844651] (AR v1)
Kopia bezbłędna
Nagranie 4
Ścieżka pliku K:\Milosc - Taniec Smoka\04 Pańska Bródka Mnie Denerwuje (Nie Mówiąc Już o Wąsikach).wav
Długość przerwy 0:00:05.00
Poziom wysterowania 84.0 %
Szybkość zgrywania5.6 X
Jakość nagrania 99.9 %
CRC testowana 1468A8F8
CRC kopii 1468A8F8
Zgrane akuratnie (wiarygodność 2) [CF4C5FA6] (AR v1)
Kopia bezbłędna
Nagranie 5
Ścieżka pliku K:\Milosc - Taniec Smoka\05 Cardano.wav
Długość przerwy 0:00:06.07
Poziom wysterowania 89.0 %
Szybkość zgrywania6.7 X
Jakość nagrania 100.0 %
CRC testowana 06B11775
CRC kopii 06B11775
Zgrane akuratnie (wiarygodność 3) [41E3144A] (AR v1)
Kopia bezbłędna
Nagranie 6
Ścieżka pliku K:\Milosc - Taniec Smoka\06 Chłepcąc Ciekły Hel.wav
Długość przerwy 0:00:07.10
Poziom wysterowania 76.4 %
Szybkość zgrywania7.2 X
Jakość nagrania 100.0 %
CRC testowana 4BED7910
CRC kopii 4BED7910
Zgrane akuratnie (wiarygodność 2) [48A2CAD8] (AR v1)
Kopia bezbłędna
Nagranie 7
Ścieżka pliku K:\Milosc - Taniec Smoka\07 Ordre Omnitonique.wav
Długość przerwy 0:00:04.45
Poziom wysterowania 86.4 %
Szybkość zgrywania7.7 X
Jakość nagrania 100.0 %
CRC testowana 453526AF
CRC kopii 453526AF
Zgrane akuratnie (wiarygodność 3) [35E04E0F] (AR v1)
Kopia bezbłędna
Nagranie 8
Ścieżka pliku K:\Milosc - Taniec Smoka\08 Lewy Jass.wav
Długość przerwy 0:00:05.17
Poziom wysterowania 84.5 %
Szybkość zgrywania7.8 X
Jakość nagrania 100.0 %
CRC testowana 4C3D5A1A
CRC kopii 4C3D5A1A
Zgrane akuratnie (wiarygodność 3) [844D8E6A] (AR v1)
Kopia bezbłędna
Nagranie 9
Ścieżka pliku K:\Milosc - Taniec Smoka\09 Ostatnie z ludzkich smoków.wav
Długość przerwy 0:00:05.38
Poziom wysterowania 97.0 %
Szybkość zgrywania8.4 X
Jakość nagrania 100.0 %
CRC testowana 01D379C3
CRC kopii 01D379C3
Zgrane akuratnie (wiarygodność 2) [733F5DA6] (AR v1)
Kopia bezbłędna
Nagranie 10
Ścieżka pliku K:\Milosc - Taniec Smoka\10 Łzy Smoka.wav
Długość przerwy 0:00:04.68
Poziom wysterowania 87.9 %
Szybkość zgrywania8.5 X
Jakość nagrania 99.9 %
CRC testowana EF64B26D
CRC kopii EF64B26D
Nagrania nie ma w bazie danych AccurateRip
Kopia bezbłędna
9 akuratnie zgrane
1 nie ma w bazie danych AccurateRip
Niektóre nagrania nie można zweryfikować jako akuratne
Nie było błędów
Koniec raportu
 
Содержание индексной карты (.CUE)
REM GENRE Jazz
REM DATE 1994
REM DISCID 940F950A
REM COMMENT "ExactAudioCopy v1.0b3"
PERFORMER "Milosc"
TITLE "Taniec Smoka"
FILE "01 Taniec Smoka.wav" WAVE
TRACK 01 AUDIO
TITLE "Taniec Smoka"
PERFORMER "Milosc"
PREGAP 00:00:32
INDEX 01 00:00:00
TRACK 02 AUDIO
TITLE "Maszyna Ludzka"
PERFORMER "Milosc"
INDEX 00 12:01:50
FILE "02 Maszyna Ludzka.wav" WAVE
INDEX 01 00:00:00
TRACK 03 AUDIO
TITLE "Lezor i Niutnia"
PERFORMER "Milosc"
INDEX 00 03:43:05
FILE "03 Lezor i Niutnia.wav" WAVE
INDEX 01 00:00:00
TRACK 04 AUDIO
TITLE "Panska Brodka Mnie Denerwuje (Nie Mowiac Juz o Wasikach)"
PERFORMER "Milosc"
INDEX 00 03:12:15
FILE "04 Panska Brodka Mnie Denerwuje (Nie Mowiac Juz o Wasikach).wav" WAVE
INDEX 01 00:00:00
TRACK 05 AUDIO
TITLE "Cardano"
PERFORMER "Milosc"
INDEX 00 03:20:55
FILE "05 Cardano.wav" WAVE
INDEX 01 00:00:00
TRACK 06 AUDIO
TITLE "Chlepcac Ciekly Hel"
PERFORMER "Milosc"
INDEX 00 07:45:03
FILE "06 Chlepcac Ciekly Hel.wav" WAVE
INDEX 01 00:00:00
TRACK 07 AUDIO
TITLE "Ordre Omnitonique"
PERFORMER "Milosc"
INDEX 00 06:59:55
FILE "07 Ordre Omnitonique.wav" WAVE
INDEX 01 00:00:00
TRACK 08 AUDIO
TITLE "Lewy Jass"
PERFORMER "Milosc"
INDEX 00 07:12:20
FILE "08 Lewy Jass.wav" WAVE
INDEX 01 00:00:00
TRACK 09 AUDIO
TITLE "Ostatnie z ludzkich smokow"
PERFORMER "Milosc"
INDEX 00 02:17:55
FILE "09 Ostatnie z ludzkich smokow.wav" WAVE
INDEX 01 00:00:00
TRACK 10 AUDIO
TITLE "Lzy Smoka"
PERFORMER "Milosc"
INDEX 00 08:38:32
FILE "10 Lzy Smoka.wav" WAVE
INDEX 01 00:00:00
 
auCDtect Task Manager
Any questions -> support@pro-jazz.com. По всем вопросам пишите -> support@pro-jazz.com
23:27
175
Нет комментариев. Ваш будет первым!