Вы используете незарегистрированную версию компонента "Вкладки"!

Поиск

(Avant-Garde, Free Improvisation) [CD] Shams (Ken Hyder & Tim Hodgkinson) - Burghan Interference - 2000, FLAC (tracks+.cue), lossless

(Avant-Garde, Free Improvisation) [CD] Shams (Ken Hyder & Tim Hodgkinson) - Burghan Interference - 2000, FLAC (tracks+.cue), lossless
Треклист:
Shams (Ken Hyder & Tim Hodgkinson) / Burghan Interference
Жанр: Avant-Garde, Free Improvisation
Носитель: CD
Страна-производитель диска: UK
Год издания: 2000
Издатель (лейбл): Slam Productions
Номер по каталогу: SLAMCD 238
Страна: UK
Аудиокодек: FLAC (*.flac)
Тип рипа: tracks+.cue
Битрейт аудио: lossless
Продолжительность: 46:44
Источник (релизер): свой фирменный диск
Наличие сканов в содержимом раздачи:
Треклист:
1. Late Joy, Early Sadness 6:47
2. Still Bear, Restless Autumn 8:07
3. Depth Of Flying 6:49
4. Governors Of The Steppe School 7:41
5. Make Better Shake 7:20
6. Olkhon Customs 9:54
 
Лог создания рипа
Exact Audio Copy V1.0 beta 3 from 29. August 2011
EAC extraction logfile from 24. January 2014, 21:00
Shams / Burghan Interference
Used drive : PIONEER DVD-RW DVR-115D Adapter: 0 ID: 0
Read mode : Secure
Utilize accurate stream : Yes
Defeat audio cache : Yes
Make use of C2 pointers : No
Read offset correction : 48
Overread into Lead-In and Lead-Out : No
Fill up missing offset samples with silence : Yes
Delete leading and trailing silent blocks : No
Null samples used in CRC calculations : Yes
Used interface : Installed external ASPI interface
Gap handling : Appended to previous track
Used output format : User Defined Encoder
Selected bitrate : 896 kBit/s
Quality : High
Add ID3 tag : No
Command line compressor : C:\Program Files\Exact Audio Copy\FLAC\FLAC.EXE
Additional command line options : -6 -V -T "ARTIST=%artist%" -T "TITLE=%title%" -T "ALBUM=%albumtitle%" -T "DATE=%year%" -T "TRACKNUMBER=%tracknr%" -T "GENRE=%genre%" -T "COMMENT=%comment%" -T "BAND=%albuminterpret%" -T "COMPOSER=%composer%" %haslyrics%--tag-from-file=LYRICS="%lyricsfile%"%haslyrics% -T "DISCNUMBER=%cdnumber%" -T "TOTALDISCS=%totalcds%" -T "TOTALTRACKS=%numtracks%" %hascover%--picture="%coverfile%"%hascover% %source% -o %dest%
TOC of the extracted CD
Track | Start | Length | Start sector | End sector
---------------------------------------------------------
1 | 0:00.00 | 6:48.46 | 0 | 30645
2 | 6:48.46 | 8:07.43 | 30646 | 67213
3 | 14:56.14 | 6:50.57 | 67214 | 98020
4 | 21:46.71 | 7:41.69 | 98021 | 132664
5 | 29:28.65 | 7:21.08 | 132665 | 165747
6 | 36:49.73 | 9:54.43 | 165748 | 210340
Track 1
Filename D:\zzz\01 - Late Joy, Early Sadness.wav
Pre-gap length 0:00:02.00
Peak level 98.8 %
Extraction speed 4.7 X
Track quality 100.0 %
Test CRC DE983B45
Copy CRC DE983B45
Track not present in AccurateRip database
Copy OK
Track 2
Filename D:\zzz\02 - Still Bear, Restless Autumn.wav
Peak level 98.8 %
Extraction speed 5.6 X
Track quality 100.0 %
Test CRC D9BFDB1E
Copy CRC D9BFDB1E
Track not present in AccurateRip database
Copy OK
Track 3
Filename D:\zzz\03 - Depth Of Flying.wav
Peak level 98.8 %
Extraction speed 6.2 X
Track quality 100.0 %
Test CRC C41E0CA3
Copy CRC C41E0CA3
Track not present in AccurateRip database
Copy OK
Track 4
Filename D:\zzz\04 - Governors Of The Steppe School.wav
Peak level 98.8 %
Extraction speed 6.8 X
Track quality 100.0 %
Test CRC 0191B9CA
Copy CRC 0191B9CA
Track not present in AccurateRip database
Copy OK
Track 5
Filename D:\zzz\05 - Make Better Shake.wav
Peak level 98.8 %
Extraction speed 7.3 X
Track quality 100.0 %
Test CRC 2744E74E
Copy CRC 2744E74E
Track not present in AccurateRip database
Copy OK
Track 6
Filename D:\zzz\06 - Olkhon Customs.wav
Peak level 92.4 %
Extraction speed 7.9 X
Track quality 100.0 %
Test CRC 74899A08
Copy CRC 74899A08
Track not present in AccurateRip database
Copy OK
None of the tracks are present in the AccurateRip database
No errors occurred
End of status report
==== Log checksum 744820A288238B7B1C600FA2EB7D2D67FA9C823E4FD966B8F9BEE5C178F8ADC0 ====
 
Содержание индексной карты (.CUE)
REM GENRE Avant-Garde
REM DATE 2000
REM DISCID 410AF406
REM COMMENT "ExactAudioCopy v1.0b3"
PERFORMER "Shams"
TITLE "Burghan Interference"
FILE "01 - Late Joy, Early Sadness.wav" WAVE
TRACK 01 AUDIO
TITLE "Late Joy, Early Sadness"
PERFORMER "Shams"
FLAGS DCP
INDEX 01 00:00:00
FILE "02 - Still Bear, Restless Autumn.wav" WAVE
TRACK 02 AUDIO
TITLE "Still Bear, Restless Autumn"
PERFORMER "Shams"
FLAGS DCP
INDEX 01 00:00:00
FILE "03 - Depth Of Flying.wav" WAVE
TRACK 03 AUDIO
TITLE "Depth Of Flying"
PERFORMER "Shams"
FLAGS DCP
INDEX 01 00:00:00
FILE "04 - Governors Of The Steppe School.wav" WAVE
TRACK 04 AUDIO
TITLE "Governors Of The Steppe School"
PERFORMER "Shams"
FLAGS DCP
INDEX 01 00:00:00
FILE "05 - Make Better Shake.wav" WAVE
TRACK 05 AUDIO
TITLE "Make Better Shake"
PERFORMER "Shams"
FLAGS DCP
INDEX 01 00:00:00
FILE "06 - Olkhon Customs.wav" WAVE
TRACK 06 AUDIO
TITLE "Olkhon Customs"
PERFORMER "Shams"
FLAGS DCP
INDEX 01 00:00:00
 
Лог проверки качества
d:\>d:\aucdtect -d/-m0 d:\zzz\*.wav
auCDtect: CD records authenticity detector, version 0.8.2
Copyright (c) 2004 Oleg Berngardt. All rights reserved.
Copyright (c) 2004 Alexander Djourik. All rights reserved.
------------------------------------------------------------
Processing file: [01. Late Joy, Early Sadness.wav]
------------------------------------------------------------
This track looks like CDDA with probability 99%
------------------------------------------------------------
Processing file: [02. Still Bear, Restless Autumn.wav]
------------------------------------------------------------
This track looks like CDDA with probability 100%
------------------------------------------------------------
Processing file: [03. Depth Of Flying.wav]
------------------------------------------------------------
This track looks like CDDA with probability 100%
------------------------------------------------------------
Processing file: [04. Governors Of The Steppe School.wav]
------------------------------------------------------------
This track looks like CDDA with probability 100%
------------------------------------------------------------
Processing file: [05. Make Better Shake.wav]
------------------------------------------------------------
This track looks like CDDA with probability 99%
------------------------------------------------------------
Processing file: [06. Olkhon Customs.wav]
------------------------------------------------------------
This track looks like CDDA with probability 100%
------------------------------------------------------------
Final Conclusion:
------------------------------------------------------------
These tracks looks like CDDA with probability 100%
Доп. информация:
 
Album Info
Siberia... jazz... shamanism.
All tracks Hodgkinson/Hyder, PRS & MCPS, London, 2000
Recorded at the Aula Magna Tolentini monastery, Venice by Massimo Ongaro, June 19, 1998
Sleeve concept by Shams.
Design by Nick Frewin
Art: detail from a drawing of a Shams performance in Gorno-Altai, Siberia by Sergei Dikov.
 
Состав
Ken Hyder: drums, voice, ektara, processing
Tim Hodgkinson: flat guitar, clarinet, alto saxophone, processing
Any questions -> support@pro-jazz.com. По всем вопросам пишите -> support@pro-jazz.com
23:25
140
Нет комментариев. Ваш будет первым!