Вы используете незарегистрированную версию компонента "Вкладки"!

Поиск

(Free Jazz, British Jazz, Free Improvisation) [CD] Full Monte (Chris Biscoe, Marcio Mattos, Brian Godding, Tony Marsh) - Spark In The Dark - 1994, FLAC (tracks+.cue), lossless

(Free Jazz, British Jazz, Free Improvisation) [CD] Full Monte (Chris Biscoe, Marcio Mattos, Brian Godding, Tony Marsh) - Spark In The Dark - 1994, FLAC (tracks+.cue), lossless
Треклист:
Full Monte / Spark In The Dark
Жанр: Free Jazz, British Jazz, Free Improvisation
Носитель: CD
Страна-производитель диска: UK
Год издания: 1994
Издатель (лейбл): Slam Productions
Номер по каталогу: SLAMCD 209
Страна: UK
Аудиокодек: FLAC (*.flac)
Тип рипа: tracks+.cue
Битрейт аудио: lossless
Продолжительность: 61:52
Источник (релизер): свой фирменный диск
Наличие сканов в содержимом раздачи:
Треклист:
1. Bubbling Marsh 5:03
2. Spark In The Dark 11:16
3. Mogadonic Tonic 14:15
4. Lift Life 8:33
5. Grand Hotel Ascenseur 7:26
6. Spiritual Cleavage II 13:18
7. Wind Dance 1:50
 
Лог создания рипа
Exact Audio Copy V1.0 beta 3 from 29. August 2011
EAC extraction logfile from 23. January 2014, 20:41
Full Monte / Spark In The Dark
Used drive : PIONEER DVD-RW DVR-115D Adapter: 0 ID: 0
Read mode : Secure
Utilize accurate stream : Yes
Defeat audio cache : Yes
Make use of C2 pointers : No
Read offset correction : 48
Overread into Lead-In and Lead-Out : No
Fill up missing offset samples with silence : Yes
Delete leading and trailing silent blocks : No
Null samples used in CRC calculations : Yes
Used interface : Installed external ASPI interface
Gap handling : Appended to previous track
Used output format : User Defined Encoder
Selected bitrate : 896 kBit/s
Quality : High
Add ID3 tag : No
Command line compressor : C:\Program Files\Exact Audio Copy\FLAC\FLAC.EXE
Additional command line options : -6 -V -T "ARTIST=%artist%" -T "TITLE=%title%" -T "ALBUM=%albumtitle%" -T "DATE=%year%" -T "TRACKNUMBER=%tracknr%" -T "GENRE=%genre%" -T "COMMENT=%comment%" -T "BAND=%albuminterpret%" -T "COMPOSER=%composer%" %haslyrics%--tag-from-file=LYRICS="%lyricsfile%"%haslyrics% -T "DISCNUMBER=%cdnumber%" -T "TOTALDISCS=%totalcds%" -T "TOTALTRACKS=%numtracks%" %hascover%--picture="%coverfile%"%hascover% %source% -o %dest%
TOC of the extracted CD
Track | Start | Length | Start sector | End sector
---------------------------------------------------------
1 | 0:00.32 | 5:05.50 | 32 | 22956
2 | 5:06.07 | 11:16.05 | 22957 | 73661
3 | 16:22.12 | 14:15.20 | 73662 | 137806
4 | 30:37.32 | 8:36.65 | 137807 | 176571
5 | 39:14.22 | 7:27.20 | 176572 | 210116
6 | 46:41.42 | 13:20.15 | 210117 | 270131
7 | 60:01.57 | 1:50.50 | 270132 | 278431
Track 1
Filename D:\zzz\01 - Bubbling Marsh.wav
Pre-gap length 0:00:02.32
Peak level 99.5 %
Extraction speed 4.8 X
Track quality 100.0 %
Test CRC CA726A5B
Copy CRC CA726A5B
Accurately ripped (confidence 2) [81E596C6] (AR v1)
Copy OK
Track 2
Filename D:\zzz\02 - Spark In The Dark.wav
Pre-gap length 0:00:02.00
Peak level 99.5 %
Extraction speed 6.0 X
Track quality 100.0 %
Test CRC E166B8E7
Copy CRC E166B8E7
Accurately ripped (confidence 2) [6D76B22A] (AR v1)
Copy OK
Track 3
Filename D:\zzz\03 - Mogadonic Tonic.wav
Pre-gap length 0:00:00.02
Peak level 99.5 %
Extraction speed 7.2 X
Track quality 100.0 %
Test CRC 65F50A0F
Copy CRC 65F50A0F
Accurately ripped (confidence 2) [BF1EC840] (AR v1)
Copy OK
Track 4
Filename D:\zzz\04 - Lift Life.wav
Pre-gap length 0:00:00.02
Peak level 99.5 %
Extraction speed 7.9 X
Track quality 100.0 %
Test CRC 9F04FE3F
Copy CRC 9F04FE3F
Accurately ripped (confidence 2) [6EAD41FA] (AR v1)
Copy OK
Track 5
Filename D:\zzz\05 - Grand Hotel Ascenseur.wav
Pre-gap length 0:00:03.00
Peak level 99.6 %
Extraction speed 8.3 X
Track quality 100.0 %
Test CRC 48D84754
Copy CRC 48D84754
Accurately ripped (confidence 2) [D4FB8C66] (AR v1)
Copy OK
Track 6
Filename D:\zzz\06 - Spiritual Cleavage II.wav
Pre-gap length 0:00:01.00
Peak level 99.6 %
Extraction speed 9.1 X
Track quality 100.0 %
Test CRC DE27AF52
Copy CRC DE27AF52
Accurately ripped (confidence 2) [2ED491B1] (AR v1)
Copy OK
Track 7
Filename D:\zzz\07 - Wind Dance.wav
Pre-gap length 0:00:01.50
Peak level 84.4 %
Extraction speed 7.5 X
Track quality 100.0 %
Test CRC 24083F51
Copy CRC 24083F51
Accurately ripped (confidence 2) [C23A46C6] (AR v1)
Copy OK
All tracks accurately ripped
No errors occurred
End of status report
==== Log checksum 89D414EA3CEEDE5BD971F87C7558677AF042B2B69D4EB601726D93DAE43B9CBF ====
 
Содержание индексной карты (.CUE)
REM GENRE "Avant-Garde Jazz"
REM DATE 1994
REM DISCID 600E8007
REM COMMENT "ExactAudioCopy v1.0b3"
PERFORMER "Full Monte"
TITLE "Spark In The Dark"
FILE "01 - Bubbling Marsh.wav" WAVE
TRACK 01 AUDIO
TITLE "Bubbling Marsh"
PERFORMER "Full Monte"
PREGAP 00:00:32
INDEX 01 00:00:00
TRACK 02 AUDIO
TITLE "Spark In The Dark"
PERFORMER "Full Monte"
INDEX 00 05:03:50
FILE "02 - Spark In The Dark.wav" WAVE
INDEX 01 00:00:00
TRACK 03 AUDIO
TITLE "Mogadonic Tonic"
PERFORMER "Full Monte"
INDEX 00 11:16:03
FILE "03 - Mogadonic Tonic.wav" WAVE
INDEX 01 00:00:00
TRACK 04 AUDIO
TITLE "Lift Life"
PERFORMER "Full Monte"
INDEX 00 14:15:18
FILE "04 - Lift Life.wav" WAVE
INDEX 01 00:00:00
TRACK 05 AUDIO
TITLE "Grand Hotel Ascenseur"
PERFORMER "Full Monte"
INDEX 00 08:33:65
FILE "05 - Grand Hotel Ascenseur.wav" WAVE
INDEX 01 00:00:00
TRACK 06 AUDIO
TITLE "Spiritual Cleavage II"
PERFORMER "Full Monte"
INDEX 00 07:26:20
FILE "06 - Spiritual Cleavage II.wav" WAVE
INDEX 01 00:00:00
TRACK 07 AUDIO
TITLE "Wind Dance"
PERFORMER "Full Monte"
INDEX 00 13:18:40
FILE "07 - Wind Dance.wav" WAVE
INDEX 01 00:00:00
 
Лог проверки качества
d:\>d:\aucdtect -d/-m0 d:\zzz\*.wav
auCDtect: CD records authenticity detector, version 0.8.2
Copyright (c) 2004 Oleg Berngardt. All rights reserved.
Copyright (c) 2004 Alexander Djourik. All rights reserved.
------------------------------------------------------------
Processing file: [01. Bubbling Marsh.wav]
------------------------------------------------------------
This track looks like CDDA with probability 85%
------------------------------------------------------------
Processing file: [02. Spark In The Dark.wav]
------------------------------------------------------------
This track looks like CDDA with probability 100%
------------------------------------------------------------
Processing file: [03. Mogadonic Tonic.wav]
------------------------------------------------------------
This track looks like CDDA with probability 100%
------------------------------------------------------------
Processing file: [04. Lift Life.wav]
------------------------------------------------------------
This track looks like CDDA with probability 100%
------------------------------------------------------------
Processing file: [05. Grand Hotel Ascenseur.wav]
------------------------------------------------------------
This track looks like CDDA with probability 100%
------------------------------------------------------------
Processing file: [06. Spiritual Cleavage II.wav]
------------------------------------------------------------
This track looks like CDDA with probability 62%
------------------------------------------------------------
Processing file: [07. Wind Dance.wav]
------------------------------------------------------------
This track looks like CDDA with probability 100%
------------------------------------------------------------
Final Conclusion:
------------------------------------------------------------
These tracks looks like CDDA with probability 100%
Доп. информация:
 
Album Info & Reviews
All compositions by Tony Marsh, Marcio Mattos, Brian Godding, Chris Biscoe
Recorded by Ted Taylor at Porcupine Studios direct to digital stereo on 3rd November 1990 (1-4)
Recorded by Dave Bernez at Exeter and Devon Arts Centre on 4th December 1993; mixed 23rd January 1994 (5-7)
All tracks produced by Full Monte
Front cover pastel drawing by Tony Marsh
Artwork by Don Godding
This record contains both live and studio recordings. We open with four studio tracks engineered by the late Ted Taylor, pianist, singer and musical veteran of the Benny Hill show. He mixed the band straight down to digital tape, remarked "This would make marvellous music for a horror movie", and created a bright, spontaneous sound. Dave Bernez recorded us in concert on a multi-track recorder, and tracks 5,6 and 7 are part of the material he later mixed to DAT. - Chris Biscoe
Simon Adams - Jazz Journal:
The four members of Full Monte - ex-pats from various Mike Westbrook bands - are catholic in their musical tastes, encompassing everything from free improvisation through orthodox swing to jazz rock. They are also remarkably democratic in performance, equal contributors to the work in hand. What results is very engaging. The title track is impressionistic and sparky, the guitar synth of Brian Godding well integrated into the whole as it sends out abrupt chiming runs to disturb the even flow. Mattos’s double bass is heard to good effect on Lift Life, while Biscoe is both fluent and mercurial in performance, his contributions always surprising in the directions they take. With Tony Marsh ever inventive, the four turn in a set that, while rigorously uncommercial in appeal, is nonetheless highly enjoyable, a timely reminder that sparks can fly from every direction.
Barry Witherden The Wire June 1994:
The members of Full Monte have covered many musical waterfronts in their careers. On Spark in the Dark, the flotsam, jetsam and treasure troves they have collected over the years are forged into a constantly engaging set of open ended improvisation, ranging from abstract impressionism to melted down riffs, and there is never a dull moment. I have heard Biscoe in a number of contexts, making distinguished contributions to groups led by Mike Westbrook, Chris McGregor, George Russell and Andy Sheppard, but I don’t think he has ever been heard to better advantage than here. Not that his playing, excellent though it is, dominates: this is group music and each member of the quartet plays intensely and listens intently, creating an album crammed with demanding but rewarding improvisation.
 
Состав
Brian Godding: Roland GR50 guitar synth, Yamaha sound sources
Tony Marsh: drums and cymbals (except 1)
Marcio Mattos: double bass
Chris Biscoe: alto sax (1,2,3), soprano sax (1,4,5), alto clarinet (1,4,6)
Any questions -> support@pro-jazz.com. По всем вопросам пишите -> support@pro-jazz.com
23:24
108
Нет комментариев. Ваш будет первым!