Поиск

(Free Jazz, British Jazz, FMR) [CD] Amalgam (Trevor Watts, John Stevens, Jeff Clyne, Barry Guy) - Prayer For Peace - 1969, FLAC (tracks+.cue), lossless

(Free Jazz, British Jazz, FMR) [CD] Amalgam (Trevor Watts, John Stevens, Jeff Clyne, Barry Guy) - Prayer For Peace - 1969, FLAC (tracks+.cue), lossless
Треклист:
Amalgam / Prayer For Peace
Жанр: Free Jazz, British Jazz, FMR
Носитель: CD
Страна-производитель диска (релиза): UK
Год издания: 2002
Издатель (лейбл): FMR Records
Номер по каталогу: FMRCD96-V0402
Страна исполнителя (группы): UK
Аудиокодек: FLAC (*.flac)
Тип рипа: tracks+.cue
Битрейт аудио: lossless
Продолжительность: 50:45
Источник (релизер): свой фирменный диск
Наличие сканов в содержимом раздачи:
Треклист:
1. Tales Of Sadness
2. Judys' Smile I
3. Judys' Smile II
4. Judys' Smile III
5. Prayer For Peace
 
Лог создания рипа
Exact Audio Copy V1.0 beta 3 from 29. August 2011
EAC extraction logfile from 8. November 2014, 15:22
Amalgam / Prayer For Peace
Used drive : PIONEER DVD-RW DVR-115D Adapter: 0 ID: 0
Read mode : Secure
Utilize accurate stream : Yes
Defeat audio cache : Yes
Make use of C2 pointers : No
Read offset correction : 48
Overread into Lead-In and Lead-Out : No
Fill up missing offset samples with silence : Yes
Delete leading and trailing silent blocks : No
Null samples used in CRC calculations : Yes
Used interface : Installed external ASPI interface
Gap handling : Appended to previous track
Used output format : User Defined Encoder
Selected bitrate : 768 kBit/s
Quality : High
Add ID3 tag : No
Command line compressor : C:\Program Files\Exact Audio Copy\Flac\flac.exe
Additional command line options : -6 -V -T "ARTIST=%artist%" -T "TITLE=%title%" -T "ALBUM=%albumtitle%" -T "DATE=%year%" -T "TRACKNUMBER=%tracknr%" -T "GENRE=%genre%" -T "COMMENT=%comment%" -T "BAND=%albuminterpret%" -T "COMPOSER=%composer%" %haslyrics%--tag-from-file=LYRICS="%lyricsfile%"%haslyrics% -T "DISCNUMBER=%cdnumber%" -T "TOTALDISCS=%totalcds%" -T "TOTALTRACKS=%numtracks%" %hascover%--picture="%coverfile%"%hascover% %source% -o %dest%
TOC of the extracted CD
Track | Start | Length | Start sector | End sector
---------------------------------------------------------
1 | 0:00.00 | 14:28.13 | 0 | 65112
2 | 14:28.13 | 9:54.46 | 65113 | 109708
3 | 24:22.59 | 10:08.38 | 109709 | 155346
4 | 34:31.22 | 8:40.41 | 155347 | 194387
5 | 43:11.63 | 7:33.05 | 194388 | 228367
Track 1
Filename D:\zzz\01 - Tales Of Sadness.wav
Pre-gap length 0:00:02.00
Peak level 100.0 %
Extraction speed 5.4 X
Track quality 99.9 %
Test CRC 5378BFF0
Copy CRC 5378BFF0
Cannot be verified as accurate (confidence 2) [D5E2D443], AccurateRip returned [FD7E4636] (AR v2)
Copy OK
Track 2
Filename D:\zzz\02 - Judys' Smile I.wav
Peak level 100.0 %
Extraction speed 6.3 X
Track quality 99.9 %
Test CRC 336BC445
Copy CRC 336BC445
Cannot be verified as accurate (confidence 2) [4658C7EA], AccurateRip returned [26E1C3F1] (AR v2)
Copy OK
Track 3
Filename D:\zzz\03 - Judys' Smile II.wav
Peak level 100.0 %
Extraction speed 7.4 X
Track quality 100.0 %
Test CRC 1D592346
Copy CRC 1D592346
Cannot be verified as accurate (confidence 2) [68D564EC], AccurateRip returned [2F80FCBB] (AR v2)
Copy OK
Track 4
Filename D:\zzz\04 - Judys' Smile III.wav
Peak level 100.0 %
Extraction speed 7.5 X
Track quality 99.9 %
Test CRC E09C4DEC
Copy CRC E09C4DEC
Cannot be verified as accurate (confidence 2) [5B67495B], AccurateRip returned [618A4A94] (AR v2)
Copy OK
Track 5
Filename D:\zzz\05 - Prayer For Peace.wav
Peak level 100.0 %
Extraction speed 8.4 X
Track quality 100.0 %
Test CRC E9E333CF
Copy CRC E9E333CF
Cannot be verified as accurate (confidence 2) [DF77D5F1], AccurateRip returned [EB31D297] (AR v2)
Copy OK
No tracks could be verified as accurate
You may have a different pressing from the one(s) in the database
No errors occurred
End of status report
==== Log checksum 12AFFB7952F00D63BA9CDB65559E48B832A46DC2949BDE766475053B0033ED2E ====
 
Содержание индексной карты (.CUE)
REM GENRE "Free Jazz"
REM DATE 1969
REM DISCID 3F0BE405
REM COMMENT "ExactAudioCopy v1.0b3"
PERFORMER "Amalgam"
TITLE "Prayer For Peace"
FILE "01 - Tales Of Sadness.wav" WAVE
TRACK 01 AUDIO
TITLE "Tales Of Sadness"
PERFORMER "Amalgam"
INDEX 01 00:00:00
FILE "02 - Judys' Smile I.wav" WAVE
TRACK 02 AUDIO
TITLE "Judys' Smile I"
PERFORMER "Amalgam"
INDEX 01 00:00:00
FILE "03 - Judys' Smile II.wav" WAVE
TRACK 03 AUDIO
TITLE "Judys' Smile II"
PERFORMER "Amalgam"
INDEX 01 00:00:00
FILE "04 - Judys' Smile III.wav" WAVE
TRACK 04 AUDIO
TITLE "Judys' Smile III"
PERFORMER "Amalgam"
INDEX 01 00:00:00
FILE "05 - Prayer For Peace.wav" WAVE
TRACK 05 AUDIO
TITLE "Prayer For Peace"
PERFORMER "Amalgam"
INDEX 01 00:00:00
 
Лог проверки качества
d:\>d:\aucdtect -d/-m0 d:\zzz\*.wav
auCDtect: CD records authenticity detector, version 0.8.2
Copyright (c) 2004 Oleg Berngardt. All rights reserved.
Copyright (c) 2004 Alexander Djourik. All rights reserved.
------------------------------------------------------------
Processing file: [01. Tales Of Sadness.wav]
------------------------------------------------------------
This track looks like CDDA with probability 99%
------------------------------------------------------------
Processing file: [02. Judys' Smile I.wav]
------------------------------------------------------------
This track looks like CDDA with probability 99%
------------------------------------------------------------
Processing file: [03. Judys' Smile II.wav]
------------------------------------------------------------
This track looks like CDDA with probability 100%
------------------------------------------------------------
Processing file: [04. Judys' Smile III.wav]
------------------------------------------------------------
This track looks like CDDA with probability 100%
------------------------------------------------------------
Processing file: [05. Prayer For Peace.wav]
------------------------------------------------------------
This track looks like CDDA with probability 100%
------------------------------------------------------------
Final Conclusion:
------------------------------------------------------------
These tracks looks like CDDA with probability 100%
Доп. информация:
 
Album Info & Review
All compositions by Trevor Watts
Produced by Terry Yason
Recorded at Advision London on the 20th May 1969
Engineer: Eddie Offord
Text: Trevor Watts
Cover design/photography: Jak Kilby
In the late 60s, British jazz was in a state of flux, pulling itself into strange new shapes influenced by the U.S. avant garde, European improvisation and rock and giving birth to bands such as Keith Tippett's Centipede, Nucleus, and Trevor Watts' Amalgam.
Alto saxophonist Watts was the driving force behind the legendary Spontaneous Music Ensemble, alongside drummer John Stevens. While that outfit took post Coltrane jazz further out into the spiky landscapes of what was later to be called 'free improvisation', Amalgam operated in more melodic, less cerebral territory over their thirteen year history.
The 1969 debutPrayer for Peace originally appeared as a double album on the Transatlantic label (home to Brit folkies Pentangle) and featured the trio of Watts, bassist Jeff Clyne plus the now sadly departed Stevens on drums. Though you might expect flat out full on free jazz blowout from such a line up, Prayer for Peace is for the most part a warm, soulful thing, full of space, light and shade.
Watts's fruity alto stylingscarry amagisterial weight derived from Coltrane coupled with some of Albert Ayler's quivering vibrato, though his preference for clear, unbroken melodic line recalls Ornette Coleman. The absence of a chordal instrument isn't felt, partly due to Eddie Offord's lushly atmospheric recording but mostly due to Clyne, whose fat, melodic lines provide warm, unflagging support throughout.
The opening "Tales of Sadness" is a beautiful essay in controlled group improvisation; Clyne and Stevens opt for pulse rather than time under Watts's spare but lovely theme, with Steven's skittering snare decelerating and accelerating. Eventually the rhythm section hits a splashy, restless groove as the alto heads off into abstracted, chopped up phrases. Three takes of "Judy's Smile" show both the trio's differing approaches to the same material and their ability to generate a fearsome amount of swing. Throughout there's a constant three way exchange - these guys have big ears, always on the listen.
For the closing title track Clyne is replaced by Barry Guy, whose warm, buzzing arco bass makes the ideal foil for Watts's plaintive Ayleresque melody. To close, bass and alto circle each other, firing off high pitched harmonics into the ether. Lovely, empathic musicmaking from a fascinating era in Britjazz history. Heady days indeed. - Peter Marsh, BBC.co.uk
 
Состав
Trevor Watts: alto sax
John Stevens: drums
Jeff Clyne: bass
Barry Guy: bass (5)
По всем вопросам пишите личное сообщение пользователю M0p94ok.
07:10
194
Нет комментариев. Ваш будет первым!